30-sai no Hoken Taiiku | 05-standar-sarpras-revisi.docx | The Returned FR

Скачать через торрент Вызовите акушерку Зовите повитуху Фильм бесплатно в хорошем качестве torrent

Скачивайте на UnionPeer.org фильмы через торрент без регистрации. Новинки кино в хорошем качестве через торрент. На UnionPeer.org можно скачать через торрент фильмы 2014 и 2015 годов. Самые новые фильмы.

Скачать торрент Вызовите акушерку Зовите повитуху бесплатно через .torrent фильм мультфильм сериал

Статистика раздачи
Размер:  4.45 GB   |    Зарегистрирован:  3 месяца 2 дня   |    .torrent скачан:  22 раза   |   
Раздают:  1  
   
загрузка...
 
Автор Сообщение

Galfimbul

avatar Galfimbul


Вызовите акушерку / Зовите повитуху / Call The Midwife

Год выпуска: 2016
Страна: Великобритания
Жанр: драма
Продолжительность: 00:51:00

Перевод: Профессиональный (многоголосый закадровый) студия Lucky Production

Режиссёр: Хейди Томас / Филиппа Лоуторп / Теа Шэррок

В ролях: Джессика Рэйн / Jessika Raine, Брайони Ханна / Bryony Hannah, Хелен Джордж / Helen George, Джуди Парфитт / Judy Parfitt, Пэм Феррис / Pam Ferris, Миранда Харт / Miranda Hart

Описание: В центре внимания этой истории - реальные воспоминания акушерки Дженнифер Ли, которые стали основой для серии книг-бестселлеров Дженнифер Уорф. В 50-х годах Дженни прибыла в беднейший район Лондона, поселилась в монастыре Ноннатус и вместе с монахинями взялась решать медицинские проблемы Ист Энда. В буднях из жизни акушерок, пациенток и их семей есть не только трагические, драматические и порой шокирующие моменты, но и забавные. Не случайно в сериале снялась Миранда Харт. Теледрама уже получила высокие отзывы критиков и высокие рейтинги.

Сэмпл: http://sendfile.su/1413125

Качество: HDTVRip
Формат: MKV
Видео: MPEG-4 AVC, ~ 1200 Кбит/с, 854x480
Аудио: AAC, 2 ch, 128 Кбит/с
Субтитры: нет

Реклама:
нет
General
Unique ID : 75828529482927784321536589638047580383 (0x390C0B268D3B8606706ED0EA8B5F40DF)
Complete name : D:\call the midwife (season 05) tvrain HDTVRip\call.the.midwife.s05e01.HDTVRip.rus.tvrain.mkv
Format : Matroska
Format version : Version 4 / Version 2
File size : 462 MiB
Duration : 48 min 11 s
Overall bit rate mode : Variable
Overall bit rate : 1 339 kb/s
Encoded date : UTC 2018-02-27 19:45:24
Writing application : mkvmerge v21.0.0 ('Tardigrades Will Inherit The Earth') 32-bit
Writing library : libebml v1.3.5 + libmatroska v1.4.8

Video
ID : 1
Format : AVC
Format/Info : Advanced Video Codec
Format profile : [email protected]
Format settings : CABAC / 5 Ref Frames
Format settings, CABAC : Yes
Format settings, RefFrames : 5 frames
Codec ID : V_MPEG4/ISO/AVC
Duration : 48 min 11 s
Bit rate mode : Variable
Bit rate : 1 200 kb/s
Maximum bit rate : 40.0 Mb/s
Width : 854 pixels
Height : 480 pixels
Display aspect ratio : 16:9
Frame rate mode : Constant
Frame rate : 25.000 FPS
Color space : YUV
Chroma subsampling : 4:2:0
Bit depth : 8 bits
Scan type : Progressive
Bits/(Pixel*Frame) : 0.117
Stream size : 417 MiB (90%)
Writing library : x264 core 152 r19 ba24899
Encoding settings : cabac=1 / ref=5 / deblock=1:0:0 / analyse=0x3:0x113 / me=hex / subme=8 / psy=1 / psy_rd=1.00:0.00 / mixed_ref=1 / me_range=16 / chroma_me=1 / trellis=2 / 8x8dct=1 / cqm=0 / deadzone=21,11 / fast_pskip=1 / chroma_qp_offset=-2 / threads=12 / lookahead_threads=2 / sliced_threads=0 / nr=0 / decimate=1 / interlaced=0 / bluray_compat=0 / constrained_intra=0 / bframes=3 / b_pyramid=2 / b_adapt=1 / b_bias=0 / direct=3 / weightb=1 / open_gop=0 / weightp=2 / keyint=250 / keyint_min=25 / scenecut=40 / intra_refresh=0 / rc_lookahead=50 / rc=abr / mbtree=1 / bitrate=1200 / ratetol=1.0 / qcomp=0.60 / qpmin=0 / qpmax=69 / qpstep=4 / ip_ratio=1.40 / aq=1:1.0
Default : Yes
Forced : No

Audio
ID : 2
Format : AAC
Format/Info : Advanced Audio Codec
Format profile : LC
Codec ID : A_AAC-2
Duration : 48 min 11 s
Bit rate : 128 kb/s
Channel(s) : 2 channels
Channel positions : Front: L R
Sampling rate : 44.1 kHz
Frame rate : 43.066 FPS (1024 SPF)
Compression mode : Lossy
Stream size : 44.2 MiB (10%)
Default : Yes
Forced : No
Предыдущие и альтернативные раздачи

Трекер:  [ 14-Апр-2018 21:48 ]

  

Скачать .torrent

Размер .torrent файла 23 KB


Размер: 4.45 GB
Хэш (hash) релиза: a85588a1240f636c33af3da81722b7d5f9f59bc9
Подписка на обновления:

Торренты, похожие на Вызовите акушерку Зовите повитуху скачать торрент

Форум Название Автор Размер S L Добавлен
Зарубежные сериалы ·· Вызовите акушерку / Зовите повитуху / Call The Midwife / Сезон: 5 / Серии: 1-8 из 8(Хейди Томас / Филиппа Лоуторп / Теа Шэррок) [2015, Великобритания, Драма, HDTVRip] Original + Rus Sub Galfimbul 29324707102.73 GB 0 0 1479982789

13:19

24-Ноя-16

Еще никто не оставлял запись к записи скачать торрент Вызовите акушерку Зовите повитуху . Будь первым!

!Обратная связь