Once Upon a Time S07E16 720p HDTV x264-AVS[eztv] mkv
Bhootnath 2008 1080p Netflix Rip x264 ES...

Скачать через торрент музыку VA - Unchained Melody: All-Time Film Favorites The Worlds Most Beautiful Melodies - 2007, FLAC бесплатно без регистрации torrent

Статистика раздачи
Размер:  347 MB   |    Зарегистрирован:  4 дня   |    .torrent скачан:  15 раз   |   
Раздают:  1  
   
загрузка...
 
Автор Сообщение

Galfimbul

avatar Galfimbul


VA - Unchained Melody: All-Time Film Favorites / The World's Most Beautiful Melodies

Жанр: Soundtrack
Год выпуска диска: 2007
Страна-производитель диска: USA
Издатель (лейбл): Reader's Digest
Номер по каталогу: SSFLM-00104/ KCD1-8041
Аудиокодек: FLAC (*.flac)
Тип рипа: image+.cue
Битрейт аудио: lossless
Продолжительность: 54:21
Источник: Boris1
Наличие сканов в содержимом раздачи: да

Треклист:
01. Roger Williams, His Piano & Orchestra - Unchained Melody (4:05)
02. Bill Snyder, Piano - Some Enchanted Evening (3:42)
03. Henry Mancini, His Orchestra & Chorus - Hello, Young Lovers (3:33)
04. Pete Moore, His Orchestra & Chorus - In The Good Old Summertime (2:06)
05. Frank Chacksfield & His Orchestra - Play A Simple Melody (2:16)
06. The Fireside Singers - Buffalo Gals (2:07)
07. Larry Dalton, His Piano & Orchestra - Till The End Of Time (3:59)
08. Gordon Langford, His Piano & Orchestra - Raindrops Keep Falling On My Head (2:45)
09. The Romantic Strings Orchestra with Voices - Memories (2:31)
10. Larry Dalton, Piano - Over The Rainbow (3:40)
11. The Romantic Strings Orchestra with Voices - For Me And My Gal (2:41)
12. Henry Mancini, His Piano & Orchestra - I'm Always Chasing Rainbows (3:01)
13. Johnny Guarnieri, Piano - I Love A Piano (2:59)
14. Ronnie Price, His Piano & Orchestra - I've grown Accustomed To Her Face (2:59)
15. Henry Mancini, His Piano & Orchestra - Long Ago (And Far Away) (3:31)
16. Gordon Langford & His Orchestra - Hello, Dolly! (2:52)
17. Ken Darby Singers - By The Light Of The Silvery Moon (2:50)
18. National Philharmonic Orchestra - Auld Lang Syne (2:44)
Exact Audio Copy V1.0 beta 3 from 29. August 2011

EAC extraction logfile from 12. April 2018, 18:53

Various Artists / Unchained Melody

Used drive : PIONEER BD-RW BDR-TD03 Adapter: 0 ID: 1

Read mode : SecureUtilize accurate stream : YesDefeat audio cache : YesMake use of C2 pointers : No

Read offset correction : 667Overread into Lead-In and Lead-Out : NoFill up missing offset samples with silence : YesDelete leading and trailing silent blocks : NoNull samples used in CRC calculations : YesUsed interface : Native Win32 interface for Win NT & 2000

Used output format : User Defined EncoderSelected bitrate : 768 kBit/sQuality : HighAdd ID3 tag : NoCommand line compressor : C:\Program Files (x86)\Exact Audio Copy\FLAC\FLAC.EXEAdditional command line options : -6 -V -T "ARTIST=%artist%" -T "TITLE=%title%" -T "ALBUM=%albumtitle%" -T "DATE=%year%" -T "TRACKNUMBER=%tracknr%" -T "GENRE=%genre%" -T "COMMENT=%comment%" -T "BAND=%albuminterpret%" -T "ALBUMARTIST=%albuminterpret%" -T "COMPOSER=%composer%" %haslyrics%--tag-from-file=LYRICS="%lyricsfile%"%haslyrics% -T "DISCNUMBER=%cdnumber%" -T "TOTALDISCS=%totalcds%" -T "TOTALTRACKS=%numtracks%" %hascover%--picture="%coverfile%"%hascover% %source% -o %dest%

TOC of the extracted CD

Track | Start | Length | Start sector | End sector --------------------------------------------------------- 1 | 0:00.00 | 4:05.67 | 0 | 18441 2 | 4:05.67 | 3:42.63 | 18442 | 35154 3 | 7:48.55 | 3:33.02 | 35155 | 51131 4 | 11:21.57 | 2:06.10 | 51132 | 60591 5 | 13:27.67 | 2:16.15 | 60592 | 70806 6 | 15:44.07 | 2:07.08 | 70807 | 80339 7 | 17:51.15 | 3:59.70 | 80340 | 98334 8 | 21:51.10 | 2:45.62 | 98335 | 110771 9 | 24:36.72 | 2:31.68 | 110772 | 122164 10 | 27:08.65 | 3:40.17 | 122165 | 138681 11 | 30:49.07 | 2:41.33 | 138682 | 150789 12 | 33:30.40 | 3:01.45 | 150790 | 164409 13 | 36:32.10 | 2:59.05 | 164410 | 177839 14 | 39:31.15 | 2:59.47 | 177840 | 191311 15 | 42:30.62 | 3:31.20 | 191312 | 207156 16 | 46:02.07 | 2:52.23 | 207157 | 220079 17 | 48:54.30 | 2:50.10 | 220080 | 232839 18 | 51:44.40 | 2:44.45 | 232840 | 245184

Range status and errors

Selected range

Filename C:\Users\Deris\Desktop\kpnemo.eu\UnchMel\Various Artists - Unchained Melody.wav

Peak level 100.0 % Extraction speed 1.8 X Range quality 100.0 % Test CRC FD4F9204 Copy CRC FD4F9204 Copy OK

No errors occurred

AccurateRip summary

Track 1 not present in databaseTrack 2 not present in databaseTrack 3 not present in databaseTrack 4 not present in databaseTrack 5 not present in databaseTrack 6 not present in databaseTrack 7 not present in databaseTrack 8 not present in databaseTrack 9 not present in databaseTrack 10 not present in databaseTrack 11 not present in databaseTrack 12 not present in databaseTrack 13 not present in databaseTrack 14 not present in databaseTrack 15 not present in databaseTrack 16 not present in databaseTrack 17 not present in databaseTrack 18 not present in database

None of the tracks are present in the AccurateRip database

End of status report

---- CUETools DB Plugin V2.1.3

[CTDB TOCID: 44SC_3zxLqZj965yXxFzR_OHxOw-] disk not present in database, Submit result: 44SC_3zxLqZj965yXxFzR_OHxOw- has been uploaded

==== Log checksum 76EAA77A97D94AB7C25D8EDF9EDC61E62B685B147CE1F349C8FD765E328E40ED ====
foobar2000 1.3.13 / Замер динамического диапазона (DR) 1.1.1Дата отчёта: 2018-04-12 18:53:59

--------------------------------------------------------------------------------Анализ: Bill Snyder, Piano / Unchained Melody (1) Frank Chacksfield & His Orchestra / Unchained Melody (2) Gordon Langford & His Orchestra / Unchained Melody (3)--------------------------------------------------------------------------------

DR Пики RMS Продолжительность трека--------------------------------------------------------------------------------DR11 0.00 дБ -14.15 дБ 3:43 02-Some Enchanted EveningDR10 -1.33 дБ -14.47 дБ 2:16 05-Play A Simple MelodyDR12 0.00 дБ -14.51 дБ 2:52 16-Hello, Dolly!--------------------------------------------------------------------------------

Количество треков: 3Реальные значения DR: DR11

Частота: 44100 ГцКаналов: 2Разрядность: 16Битрейт: 728 кбит/сКодек: FLAC================================================================================

--------------------------------------------------------------------------------Статистика для: 08-Raindrops Keep Falling On My HeadКоличество сэмплов: 7312956Продолжительность: 2:46--------------------------------------------------------------------------------

Левый Правый

Пики: -1.81 дБ --- -0.82 дБСредний RMS: -15.68 дБ --- -15.39 дБDR канала: 11.38 дБ --- 11.43 дБ--------------------------------------------------------------------------------

Реальные значения DR: DR11

Частота: 44100 ГцКаналов: 2Разрядность: 16Битрейт: 728 кбит/сКодек: FLAC================================================================================--------------------------------------------------------------------------------Анализ: Henry Mancini, His Orchestra & Chorus / Unchained Melody (1) Henry Mancini, His Piano & Orchestra / Unchained Melody (2-3)--------------------------------------------------------------------------------

DR Пики RMS Продолжительность трека--------------------------------------------------------------------------------DR11 -1.35 дБ -15.57 дБ 3:33 03-Hello, Young LoversDR11 -0.39 дБ -15.06 дБ 3:02 12-I'm Always Chasing RainbowsDR13 0.00 дБ -16.00 дБ 3:31 15-Long Ago (And Far Away)--------------------------------------------------------------------------------

Количество треков: 3Реальные значения DR: DR12

Частота: 44100 ГцКаналов: 2Разрядность: 16Битрейт: 728 кбит/сКодек: FLAC================================================================================

--------------------------------------------------------------------------------Анализ: Johnny Guarnieri, Piano / Unchained Melody (1) Ken Darby Singers / Unchained Melody (2)--------------------------------------------------------------------------------

DR Пики RMS Продолжительность трека--------------------------------------------------------------------------------DR13 0.00 дБ -14.92 дБ 2:59 13-I Love A PianoDR10 -2.85 дБ -15.68 дБ 2:50 17-By The Light Of The Silvery Moon--------------------------------------------------------------------------------

Количество треков: 2Реальные значения DR: DR11

Частота: 44100 ГцКаналов: 2Разрядность: 16Битрейт: 728 кбит/сКодек: FLAC================================================================================

--------------------------------------------------------------------------------Анализ: Larry Dalton, His Piano & Orchestra / Unchained Melody (1) Larry Dalton, Piano / Unchained Melody (2) National Philharmonic Orchestra / Unchained Melody (3)--------------------------------------------------------------------------------

DR Пики RMS Продолжительность трека--------------------------------------------------------------------------------DR11 0.00 дБ -14.04 дБ 4:00 07-Till The End Of TimeDR13 -2.93 дБ -19.20 дБ 3:40 10-Over The RainbowDR11 -5.27 дБ -21.02 дБ 2:45 18-Auld Lang Syne--------------------------------------------------------------------------------

Количество треков: 3Реальные значения DR: DR12

Частота: 44100 ГцКаналов: 2Разрядность: 16Битрейт: 728 кбит/сКодек: FLAC================================================================================

--------------------------------------------------------------------------------Статистика для: 04-In The Good Old SummertimeКоличество сэмплов: 5562480Продолжительность: 2:06--------------------------------------------------------------------------------

Левый Правый

Пики: 0.00 дБ --- 0.00 дБСредний RMS: -13.09 дБ --- -13.93 дБDR канала: 11.21 дБ --- 12.22 дБ--------------------------------------------------------------------------------

Реальные значения DR: DR12

Частота: 44100 ГцКаналов: 2Разрядность: 16Битрейт: 728 кбит/сКодек: FLAC================================================================================--------------------------------------------------------------------------------Анализ: Roger Williams, His Piano & Orchestra / Unchained Melody (1) Ronnie Price, His Piano & Orchestra / Unchained Melody (2)--------------------------------------------------------------------------------

DR Пики RMS Продолжительность трека--------------------------------------------------------------------------------DR12 0.00 дБ -14.61 дБ 4:06 01-Unchained MelodyDR12 -1.90 дБ -16.45 дБ 3:00 14-I've grown Accustomed To Her Face--------------------------------------------------------------------------------

Количество треков: 2Реальные значения DR: DR12

Частота: 44100 ГцКаналов: 2Разрядность: 16Битрейт: 728 кбит/сКодек: FLAC================================================================================

--------------------------------------------------------------------------------Анализ: The Fireside Singers / Unchained Melody (1) The Romantic Strings Orchestra with Voices / Unchained Melody (2-3)--------------------------------------------------------------------------------

DR Пики RMS Продолжительность трека--------------------------------------------------------------------------------DR14 0.00 дБ -15.96 дБ 2:07 06-Buffalo GalsDR11 -2.36 дБ -16.52 дБ 2:32 09-MemoriesDR9 -2.19 дБ -13.27 дБ 2:41 11-For Me And My Gal--------------------------------------------------------------------------------

Количество треков: 3Реальные значения DR: DR11

Частота: 44100 ГцКаналов: 2Разрядность: 16Битрейт: 728 кбит/сКодек: FLAC================================================================================

Раздаю до первых 5-ти скачавших, на раздачи не возвращаюсь...


Трекер:  [ 14-Апр-2018 20:36 ]

  

Скачать .torrent

Размер .torrent файла 14 KB


Размер: 347 MB
Хэш (hash) релиза: 57bac4b511ad2df630ceadd390f38abd7e1c7fd1

Еще никто не оставлял запись к записи скачать торрент VA - Unchained Melody: All-Time Film Favorites The Worlds Most Beautiful Melodies - 2007, FLAC . Будь первым!

!Обратная связь