Hip Hop Rap
Stephanie Garber: Caraval (Caraval #1)

Скачать через торрент Пространство The Expanse Фильм бесплатно в хорошем качестве torrent

Скачивайте на UnionPeer.org фильмы через торрент без регистрации. Новинки кино в хорошем качестве через торрент. На UnionPeer.org можно скачать через торрент фильмы 2014 и 2015 годов. Самые новые фильмы.

Скачать торрент Пространство The Expanse бесплатно через .torrent фильм мультфильм сериал

Статистика раздачи
Размер:  4.19 GB   |    Зарегистрирован:  1 день 14 часов   |    .torrent скачан:  46 раз   |   
Раздают:  1  
   
загрузка...
 
Автор Сообщение

Galfimbul

avatar Galfimbul



Пространство | The Expanse

Год выпуска: 2018
Страна: США
Жанр: фантастика, детектив
Продолжительность: ~ 00:45:00
Перевод: Профессиональный (многоголосый закадровый) | Jaskier
Режиссёр: Роберт Либерман, Терри МакДонаф, Джефф Вулнаф
В ролях: Шоре Агдашлу, Кэс Анвар, Уэс Чэтэм, Томас Джейн, Стивен Стрейт, Илайс Туфексис, Джейн Моффат, Сара Митич, Майкл Мюррей, Джо Делфин и др.
Описание: Через двести лет от дня сегодняшнего некий сыщик, привыкший всё доводить до конца при любых обстоятельствах, в рамках расследования дела об исчезновении молодой женщины оказывается на борту звездолета, капитан которого решает помочь детективу в его непростом деле. Величайший заговор в истории человечества гарантируется, как и его непременное раскрытие.

| |
Качество: WEB-DL 1080p
Формат: MKV
Видео: 1920x1080 (16:9) | X264/MPEG4-AVC | ~6100 kbps | 23.976 fps
Аудио 1: AC3 | 48 KHz | 5.1 (Front: L С R Side: L R) + LFE | ~384 kbps [RUS]
Аудио 2: AC3 | 48 KHz | 5.1 (Front: L С R Side: L R) + LFE | ~384 kbps [ENG]
Субтитры: английские
Реклама: Присутствует звуковая (два раза в начале и конце по 12 сек.)
Переведено и озвучено: студией Jaskier
Общее
Уникальный идентификатор                 : 220957608912990953016386598443502854775 (0xA63AE3361F042F1895393479C594E277)
Полное имя                               : D:\Яскъер\The Expanse. Season 3 (WEB-DL l 1080p l Jaskier)\The.Expanse.S03E01.1080p.WEB-DL.DD5.1.H.264-Jaskier.mkv
Формат                                   : Matroska
Версия формата                           : Version 2
Размер файла                             : 2,07 Гбайт
Продолжительность                        : 43 м. 37 с.
Режим общего битрейта                    : Переменный
Общий поток                              : 6804 Кбит/сек
Дата кодирования                         : UTC 2018-04-14 14:20:09
Программа кодирования                    : mkvmerge v7.8.0 ('River Man') 32bit built on Apr  3 2015 12:11:22
Библиотека кодирования                   : libebml v1.3.1 + libmatroska v1.4.2

Видео
Идентификатор                            : 1
Формат                                   : AVC
Формат/Информация                        : Advanced Video Codec
Профиль формата                          : [email protected]
Настройки формата                        : CABAC / 4 Ref Frames
Параметр CABAC формата                   : Да
Параметр RefFrames формата               : 4 кадра
Идентификатор кодека                     : V_MPEG4/ISO/AVC
Продолжительность                        : 43 м. 37 с.
Вид битрейта                             : Переменный
Битрейт                                  : 5900 Кбит/сек
Максимальный битрейт                     : 15,0 Мбит/сек
Ширина                                   : 1920 пикселей
Высота                                   : 1080 пикселей
Соотношение сторон                       : 16:9
Режим частоты кадров                     : Постоянный
Частота кадров                           : 23,976 (24000/1001) кадра/сек
Цветовое пространство                    : YUV
Субдискретизация насыщенности            : 4:2:0
Битовая глубина                          : 8 бит
Тип развёртки                            : Прогрессивная
Бит/(Пиксели*Кадры)                      : 0.119
Размер потока                            : 1,80 Гбайт (87%)
Язык                                     : English
Default                                  : Да
Forced                                   : Нет
Цветовой диапазон                        : Limited
Основные цвета                           : BT.709
Характеристики трансфера                 : BT.709
Коэффициенты матрицы                     : BT.709

Аудио #1
Идентификатор                            : 2
Формат                                   : AC-3
Формат/Информация                        : Audio Coding 3
Идентификатор кодека                     : A_AC3
Продолжительность                        : 43 м. 37 с.
Вид битрейта                             : Постоянный
Битрейт                                  : 384 Кбит/сек
Каналы                                   : 6 каналов
Расположение каналов                     : Front: L C R, Side: L R, LFE
Частота                                  : 48,0 КГц
Частота кадров                           : 31,250 кадров/сек (1536 SPF)
Битовая глубина                          : 16 бит
Метод сжатия                             : С потерями
Размер потока                            : 120 Мбайт (6%)
Заголовок                                : Jaskier
Язык                                     : Russian
ServiceKind/String                       : Complete Main
Default                                  : Да
Forced                                   : Нет

Аудио #2
Идентификатор                            : 3
Формат                                   : AC-3
Формат/Информация                        : Audio Coding 3
Идентификатор кодека                     : A_AC3
Продолжительность                        : 43 м. 37 с.
Вид битрейта                             : Постоянный
Битрейт                                  : 384 Кбит/сек
Каналы                                   : 6 каналов
Расположение каналов                     : Front: L C R, Side: L R, LFE
Частота                                  : 48,0 КГц
Частота кадров                           : 31,250 кадров/сек (1536 SPF)
Битовая глубина                          : 16 бит
Метод сжатия                             : С потерями
Размер потока                            : 120 Мбайт (6%)
Язык                                     : English
ServiceKind/String                       : Complete Main
Default                                  : Нет
Forced                                   : Нет

Текст
Идентификатор                            : 4
Формат                                   : UTF-8
Идентификатор кодека                     : S_TEXT/UTF8
Идентификатор кодека/Информация          : UTF-8 Plain Text
Язык                                     : English
Default                                  : Нет
Forced                                   : Нет
Когда раздача ведётся путём добавления новых серий, при каждом добавлении создётся новый торрент. Чтобы начать докачку новой серии, пользователям необходимо сделать следующее:
(1) остановить скачивание,
(2) удалить старый торрент у себя из клиента (старые серии удалять не надо),
(3) скачать новый торрент и запустить его у себя в клиенте вместо старого, при этом указать клиенту путь в старую папку, куда и должно происходить скачивание новых серий.
Ваш клиент при этом должен произвести хеширование (проверку) старой папки (если не производит сам - помогите ему сделать это), и будет докачивать только те серии, которых у вас ещё нет. Старые серии при этом не удаляются, а продолжают раздаваться!
Eсли вы уже удалили старые серии, то предотвратить повторную закачку старых серий можно, отжав галочку в соответсвующих местах при запуске нового торрента. По возможности, желательно не удалять старые серии как можно дольше, чтобы релизёр не столько продолжал раздавать старые серии, а смог сконцентрироваться на новых.



Трекер:  [ 21-Апр-2018 23:53 ]

  

Скачать .torrent

Размер .torrent файла 21 KB


Размер: 4.19 GB
Хэш (hash) релиза: 975625bf29c90f6695494fa6a66d406bc4f47ea8
Подписка на обновления:

Торренты, похожие на Пространство The Expanse скачать торрент

Форум Название Автор Размер S L Добавлен
Зарубежные сериалы ·· Пространство / The Expanse / Сезон: 3 / Серии: 1-2 из 13 (Роберт Либерман, Терри МакДонаф, Джефф Вулнаф) [2018, США, фантастика, детектив, WEB-DL 720p] MVO (Jaskier) + Original + Sub, Eng Galfimbul 19641702021.83 GB 0 0 1523717326

17:48

14-Апр-18

Зарубежные сериалы ·· Пространство / The Expanse / Сезон: 3 / Серии: 1-2 из 13 (Роберт Либерман, Терри МакДонаф, Джефф Вулнаф) [2018, США, фантастика, детектив, WEB-DLRip] MVO (Jaskier) + Original Galfimbul 11537940481.07 GB 0 0 1523717288

17:48

14-Апр-18

Зарубежные сериалы ·· Пространство / Экспансия / The Expanse / Сезон: 3 / Серии: 1-2 из 13 (Роберт Либерман) [2018, США, фантастика, триллер, драма, детектив, WEBRip] MVO (Baibako) + Original Galfimbul 17995816961.68 GB 0 0 1523697491

12:18

14-Апр-18

Зарубежные сериалы ·· Пространство / Экспансия / The Expanse / Сезон: 3 / Серии: 1-2 из 13 (Роберт Либерман, Терри МакДонаф, Джефф Вулнаф) [2018, США, Фантастика, триллер, драма, детектив, экранизация, WEBRip] DVO (Gears Media) + Original Galfimbul 11297148041.05 GB 0 0 1523652499

23:48

13-Апр-18

Зарубежные сериалы ·· Пространство / Экспансия / The Expanse / Сезон: 3 / Серии: 1-2 из 13 (Роберт Либерман, Терри МакДонаф) [2018, США, фантастика, детектив, WEBRip] MVO (LostFilm) + Original Galfimbul 11637104641.08 GB 0 0 1523652490

23:48

13-Апр-18

Зарубежные сериалы ·· Пространство / Экспансия / The Expanse / Сезон: 3 / Серии: 1-2 из 13 (Роберт Либерман, Терри МакДонаф, Джефф Вулнаф) [2018, США, Фантастика, триллер, драма, детектив, экранизация, WEBRip 720p] DVO (Gears Media) + Original Galfimbul 20706842501.93 GB 0 0 1523648894

22:48

13-Апр-18

Зарубежные сериалы ·· Пространство / Экспансия / The Expanse / Сезон: 3 / Серии: 1-2 из 13 (Роберт Либерман / Robert Lieberman) [2018, США, фантастика, детектив, WEB-DL 1080p] MVO (OmskBird) + Original Galfimbul 36447323153.39 GB 0 0 1523609292

11:48

13-Апр-18

Зарубежные сериалы ·· Пространство / The Expanse / Сезон: 2 / Серии: 1-3 из 13 (Роберт Либерман, Терри МакДонаф, Джефф Вулнаф) [2017, США, фантастика, детектив, WEB-DL 720p] MVO (Jaskier) + Original Galfimbul 45386845134.23 GB 0 0 1486774439

03:53

11-Фев-17

bot

Раздача обновлена!
Перекачайте торрент-файл.

Хотите добавить комментарий к записи скачать торрент Пространство The Expanse

!Обратная связь