Season 3 Episode 1 Flashpoint | shinokun | Hickok TELECHARGEMENT GRATUIT

Скачать через торрент Пространство The Expanse Фильм бесплатно в хорошем качестве torrent

Скачивайте на UnionPeer.org фильмы через торрент без регистрации. Новинки кино в хорошем качестве через торрент. На UnionPeer.org можно скачать через торрент фильмы 2014 и 2015 годов. Самые новые фильмы.

Скачать торрент Пространство The Expanse бесплатно через .torrent фильм мультфильм сериал

Статистика раздачи
Размер:  8.15 GB   |    Зарегистрирован:  1 месяц 5 дней   |    .torrent скачан:  121 раз   |   
Раздают:  1  
   
загрузка...
 
Автор Сообщение

Galfimbul

avatar Galfimbul



Пространство | The Expanse

Год выпуска: 2018
Страна: США
Жанр: фантастика, детектив
Продолжительность: ~ 00:45:00
Перевод: Профессиональный (многоголосый закадровый) | Jaskier
Режиссёр: Роберт Либерман, Терри МакДонаф, Джефф Вулнаф
В ролях: Шоре Агдашлу, Кэс Анвар, Уэс Чэтэм, Томас Джейн, Стивен Стрейт, Илайс Туфексис, Джейн Моффат, Сара Митич, Майкл Мюррей, Джо Делфин и др.
Описание: Через двести лет от дня сегодняшнего некий сыщик, привыкший всё доводить до конца при любых обстоятельствах, в рамках расследования дела об исчезновении молодой женщины оказывается на борту звездолета, капитан которого решает помочь детективу в его непростом деле. Величайший заговор в истории человечества гарантируется, как и его непременное раскрытие.

| |
Качество: WEB-DL 720p
Формат: MKV
Видео: 1280x720 (16:9) | X264/MPEG4-AVC | ~2200 kbps | 23.976 fps
Аудио 1: AC3 | 48 KHz | 5.1 (Front: L С R Side: L R) + LFE | ~384 kbps [RUS]
Аудио 2: AC3 | 48 KHz | 5.1 (Front: L С R Side: L R) + LFE | ~384 kbps [ENG]
Субтитры: английские
Реклама: Присутствует звуковая (два раза в начале и конце по 12 сек.)
Переведено и озвучено: студией Jaskier
Общее
Уникальный идентификатор                 : 236675097433014567571628509747349636159 (0xB20DF739AB207F7295703E22EB11443F)
Полное имя                               : D:\Яскъер\The Expanse. Season 3 (WEB-DL l 720p l Jaskier)\The.Expanse.S03E01.720p.WEB-DL.DD5.1.H.264-Jaskier.mkv
Формат                                   : Matroska
Версия формата                           : Version 2
Размер файла                             : 923 Мбайт
Продолжительность                        : 43 м. 37 с.
Режим общего битрейта                    : Переменный
Общий поток                              : 2959 Кбит/сек
Дата кодирования                         : UTC 2018-04-14 14:19:15
Программа кодирования                    : mkvmerge v7.8.0 ('River Man') 32bit built on Apr  3 2015 12:11:22
Библиотека кодирования                   : libebml v1.3.1 + libmatroska v1.4.2

Видео
Идентификатор                            : 1
Формат                                   : AVC
Формат/Информация                        : Advanced Video Codec
Профиль формата                          : [email protected]
Настройки формата                        : CABAC / 5 Ref Frames
Параметр CABAC формата                   : Да
Параметр RefFrames формата               : 5 кадров
Идентификатор кодека                     : V_MPEG4/ISO/AVC
Продолжительность                        : 43 м. 37 с.
Вид битрейта                             : Переменный
Битрейт                                  : 2132 Кбит/сек
Максимальный битрейт                     : 4500 Кбит/сек
Ширина                                   : 1280 пикселей
Высота                                   : 720 пикселей
Соотношение сторон                       : 16:9
Режим частоты кадров                     : Постоянный
Частота кадров                           : 23,976 (24000/1001) кадра/сек
Цветовое пространство                    : YUV
Субдискретизация насыщенности            : 4:2:0
Битовая глубина                          : 8 бит
Тип развёртки                            : Прогрессивная
Бит/(Пиксели*Кадры)                      : 0.096
Размер потока                            : 665 Мбайт (72%)
Язык                                     : English
Default                                  : Да
Forced                                   : Нет
Цветовой диапазон                        : Limited
Основные цвета                           : BT.709
Характеристики трансфера                 : BT.709
Коэффициенты матрицы                     : BT.709

Аудио #1
Идентификатор                            : 2
Формат                                   : AC-3
Формат/Информация                        : Audio Coding 3
Идентификатор кодека                     : A_AC3
Продолжительность                        : 43 м. 37 с.
Вид битрейта                             : Постоянный
Битрейт                                  : 384 Кбит/сек
Каналы                                   : 6 каналов
Расположение каналов                     : Front: L C R, Side: L R, LFE
Частота                                  : 48,0 КГц
Частота кадров                           : 31,250 кадров/сек (1536 SPF)
Битовая глубина                          : 16 бит
Метод сжатия                             : С потерями
Размер потока                            : 120 Мбайт (13%)
Заголовок                                : Jaskier
Язык                                     : Russian
ServiceKind/String                       : Complete Main
Default                                  : Да
Forced                                   : Нет

Аудио #2
Идентификатор                            : 3
Формат                                   : AC-3
Формат/Информация                        : Audio Coding 3
Идентификатор кодека                     : A_AC3
Продолжительность                        : 43 м. 37 с.
Вид битрейта                             : Постоянный
Битрейт                                  : 384 Кбит/сек
Каналы                                   : 6 каналов
Расположение каналов                     : Front: L C R, Side: L R, LFE
Частота                                  : 48,0 КГц
Частота кадров                           : 31,250 кадров/сек (1536 SPF)
Битовая глубина                          : 16 бит
Метод сжатия                             : С потерями
Размер потока                            : 120 Мбайт (13%)
Язык                                     : English
ServiceKind/String                       : Complete Main
Default                                  : Нет
Forced                                   : Нет

Текст
Идентификатор                            : 4
Формат                                   : UTF-8
Идентификатор кодека                     : S_TEXT/UTF8
Идентификатор кодека/Информация          : UTF-8 Plain Text
Язык                                     : English
Default                                  : Нет
Forced                                   : Нет
Когда раздача ведётся путём добавления новых серий, при каждом добавлении создётся новый торрент. Чтобы начать докачку новой серии, пользователям необходимо сделать следующее:
(1) остановить скачивание,
(2) удалить старый торрент у себя из клиента (старые серии удалять не надо),
(3) скачать новый торрент и запустить его у себя в клиенте вместо старого, при этом указать клиенту путь в старую папку, куда и должно происходить скачивание новых серий.
Ваш клиент при этом должен произвести хеширование (проверку) старой папки (если не производит сам - помогите ему сделать это), и будет докачивать только те серии, которых у вас ещё нет. Старые серии при этом не удаляются, а продолжают раздаваться!
Eсли вы уже удалили старые серии, то предотвратить повторную закачку старых серий можно, отжав галочку в соответсвующих местах при запуске нового торрента. По возможности, желательно не удалять старые серии как можно дольше, чтобы релизёр не столько продолжал раздавать старые серии, а смог сконцентрироваться на новых.



Трекер:  [ 11-Июн-2018 11:21 ]

  

Скачать .torrent

Размер .torrent файла 42 KB


Размер: 8.15 GB
Хэш (hash) релиза: 7d03e30a07b48624615257643205b91ae897c427
Подписка на обновления:

Торренты, похожие на Пространство The Expanse скачать торрент

Форум Название Автор Размер S L Добавлен
Зарубежные сериалы ·· Пространство / The Expanse / Сезон: 3 / Серии: 1-9 из 13 (Джефф Вулнаф, Терри МакДонаф, Роберт Либерман) [2018, США, Фантастика, триллер, драма, детектив, WEBRip 720p] MVO (AMS) Galfimbul 1312063220312.22 GB 0 0 1529282899

03:48

18-Июн-18

Зарубежные сериалы ·· Пространство / The Expanse / Сезон: 3 / Серии: 1-9 из 13 (Роберт Либерман, Терри МакДонаф, Джефф Вулнаф) [2018, США, Фантастика, триллер, драма, детектив, экранизация, WEBRip 720p] MVO (LostFilm) + Original Galfimbul 1312019015312.22 GB 0 0 1528022895

13:48

3-Июн-18

Зарубежные сериалы ·· Пространство / The Expanse / Сезон: 3 / Серии: 1-9 из 13 (Роберт Либерман, Терри МакДонаф, Джефф Вулнаф) [2018, США, фантастика, детектив, WEB-DL 1080p] MVO (Jaskier) + Original + Sub, Eng Galfimbul 1984799098718.48 GB 0 0 1523717334

17:48

14-Апр-18

Зарубежные сериалы ·· Пространство / The Expanse / Сезон: 3 / Серии: 1-9 из 13 (Роберт Либерман, Терри МакДонаф, Джефф Вулнаф) [2018, США, фантастика, детектив, WEB-DLRip] MVO (Jaskier) + Original Galfimbul 51934146564.84 GB 0 0 1523717288

17:48

14-Апр-18

Зарубежные сериалы ·· Пространство / Экспансия / The Expanse / Сезон: 3 / Серии: 1-9 из 13 (Джефф Вулнаф, Терри МакДонаф, Роберт Либерман) [2018, США, Канада, фантастика, триллер, драма, детектив, WEB-DLRip] MVO (LostFilm) + Original + Subs (Rus, Eng) Galfimbul 81937440317.63 GB 0 0 1527760087

12:48

31-Май-18

Зарубежные сериалы ·· Пространство / Экспансия / The Expanse / Сезон: 3 / Серии: 1-9 из 13 (Роберт Либерман) [2018, США, фантастика, триллер, драма, детектив, WEBRip] MVO (Baibako) + Original Galfimbul 82022318087.64 GB 2 0 1523697491

12:18

14-Апр-18

Зарубежные сериалы ·· Пространство / Экспансия / The Expanse / Сезон: 3 / Серии: 1-9 из 13 (Роберт Либерман, Терри МакДонаф, Джефф Вулнаф) [2018, США, Фантастика, триллер, драма, детектив, экранизация, WEBRip] DVO (Gears Media) + Original Galfimbul 50577744104.71 GB 0 0 1523652499

23:48

13-Апр-18

Зарубежные сериалы ·· Пространство / Экспансия / The Expanse / Сезон: 3 / Серии: 1-9 из 13 (Роберт Либерман, Терри МакДонаф) [2018, США, фантастика, детектив, WEBRip] MVO (LostFilm) + Original Galfimbul 52393472004.88 GB 0 0 1523652490

23:48

13-Апр-18

Зарубежные сериалы ·· Пространство / Экспансия / The Expanse / Сезон: 3 / Серии: 1-9 из 13 (Роберт Либерман, Терри МакДонаф, Джефф Вулнаф) [2018, США, Фантастика, триллер, драма, детектив, экранизация, WEBRip 720p] DVO (Gears Media) + Original Galfimbul 94499843978.8 GB 0 0 1523648894

22:48

13-Апр-18

Зарубежные сериалы ·· Пространство / Экспансия / The Expanse / Сезон: 3 / Серии: 1-9 из 13 (Роберт Либерман / Robert Lieberman) [2018, США, фантастика, детектив, WEB-DL 1080p] MVO (OmskBird) + Original Galfimbul 2016920974418.78 GB 2 0 1523609292

11:48

13-Апр-18

bot

Раздача обновлена!
Перекачайте торрент-файл.

bot

Раздача обновлена!
Перекачайте торрент-файл.

bot

Раздача обновлена!
Перекачайте торрент-файл.

bot

Раздача обновлена!
Перекачайте торрент-файл.

bot

Раздача обновлена!
Перекачайте торрент-файл.

bot

Раздача обновлена!
Перекачайте торрент-файл.

bot

Раздача обновлена!
Перекачайте торрент-файл.

bot

Раздача обновлена!
Перекачайте торрент-файл.

Хотите добавить комментарий к записи скачать торрент Пространство The Expanse

!Обратная связь