Club der roten Bänder
AUDIOSLAVE - Revelations [2006] [256k MP3].zip

Скачать через торрент Люцифер Lucifer Фильм бесплатно в хорошем качестве torrent

Скачивайте на UnionPeer.org фильмы через торрент без регистрации. Новинки кино в хорошем качестве через торрент. На UnionPeer.org можно скачать через торрент фильмы 2014 и 2015 годов. Самые новые фильмы.

Скачать торрент Люцифер Lucifer бесплатно через .torrent фильм мультфильм сериал

Статистика раздачи
Размер:  31.66 GB   |    Зарегистрирован:  9 дней   |    .torrent скачан:  24 раза   |   
Раздают:  1  
   
загрузка...
 
Автор Сообщение

Galfimbul

avatar Galfimbul


Люцифер / Lucifer

Год выпуска: 2016
Страна: США
Студия: Warner Bros Entertainment
Жанр: фэнтези, драма, криминал
Продолжительность: ~42 минуты (серия)
Перевод: Профессиональный (дублированный) студия "ROOM13" по заказу ТВ3
Режиссёр: Нэйтан Хоуп / Nathan Hope
В ролях: Том Эллис, Лорен Джерман, Кевин Алехандро, Д.Б. Вудсайд, Лесли-Энн Брандт, Скарлет Эстевез, Рэйчел Харрис, Триша Хелфер, Эйми Гарсиа, Том Уэллинг и другие.
Роли дублировали: Иван Калинин, Василиса Воронина, Даниил Эльдаров, Екатерина Семёнова, Елена Шульман, Александр Коврижных, Сергей Набиев, Вероника Саркисова, Ольга Зверева, Анастасия Лапина, Михаил Тихонов, Андрей Бархударов, Антон Савенков, Никита Прозоровский и другие.
Описание: Заскучавший и несчастный повелитель преисподней, Люцифер Морнингстар оставил свой престол и отправился в современный Лос-Анджелес, где основал ночной клуб «Lux». Очаровательный, харизматичный и дьявольски привлекательный Люцифер наслаждается своим отдыхом — вином, женщинами и музыкой — пока красивая поп-звезда не оказывается убитой на пороге его клуба…
РЕЛИЗ ОТ: V.SERIJ2013
Спасибо Beer kolesik Drinkers за запись звука и v.serij2013 (т.е., мне) за сведение.
Качество: WEB-DL 1080p
Формат: MKV
Видео кодек: H.264
Аудио кодек: AC3
Видео: H.264, 1916x1076 (16:9), 25.000 fps, ~5334 kbps, 0.103 bit/pixel
Аудио:

русская |ТВ3|: AC3, 48 kHz, 2 ch, 192 kbps
английская |Оригинал|: AC3, 48 kHz, 6 ch, 384 kbps

Субтитры: русские, английские
Реклама: нет
Сэмпл
\ Все раздачи сериала \ Кинопоиск
01. Everything's Coming Up Lucifer
02. Liar, Liar, Slutty Dress on Fire
03. Sin-Eater
04. Lady Parts
05. Weaponizer
06. Monster
07. My Little Monkey
08. Trip to Stabby Town
09. Homewrecker
10. Quid Pro Ho
11. Stewardess Interruptus
12. Love Handles
13. A Good Day to Die
14. Candy Morningstar
15. Deceptive Little Parasite
16. God Johnson
17. Sympathy for the Goddess
18. The Good, the Bad and the Crispy
General
Unique ID                      : 224121082093060583051496952212446549562 (0xA89C267B2F494145232EB3645884963A)
Complete name                  : E:\Video\HD\Lucifer.S02.1080p.WEB-DL.Rus.Eng-v.serij2013\Lucifer.S02E01.Everything's.Coming.Up.Lucifer.1080p.WEB-DL.Rus.Eng-v.serij2013.mkv
Format                         : Matroska
Format version                 : Version 4 / Version 2
File size                      : 1.77 GiB
Duration                       : 42mn 7s
Overall bit rate               : 6 030 Kbps
Encoded date                   : UTC 2018-04-11 07:25:07
Writing application            : mkvmerge v20.0.0 ('I Am The Sun') 32-bit
Writing library                : libebml v1.3.5 + libmatroska v1.4.8
DURATION                       : 00:41:22.558000000
NUMBER_OF_FRAMES               : 1081
NUMBER_OF_BYTES                : 32426
_STATISTICS_WRITING_APP        : mkvmerge v20.0.0 ('I Am The Sun') 32-bit
_STATISTICS_WRITING_DATE_UTC   : 2018-04-11 07:25:07
_STATISTICS_TAGS               : BPS DURATION NUMBER_OF_FRAMES NUMBER_OF_BYTES

Video
ID                             : 1
Format                         : AVC
Format/Info                    : Advanced Video Codec
Format profile                 : [email protected]
Format settings, CABAC         : Yes
Format settings, ReFrames      : 4 frames
Codec ID                       : V_MPEG4/ISO/AVC
Duration                       : 42mn 7s
Bit rate                       : 5 334 Kbps
Width                          : 1 916 pixels
Height                         : 1 076 pixels
Display aspect ratio           : 16:9
Frame rate mode                : Constant
Frame rate                     : 25.000 fps
Color space                    : YUV
Chroma subsampling             : 4:2:0
Bit depth                      : 8 bits
Scan type                      : Progressive
Bits/(Pixel*Frame)             : 0.103
Stream size                    : 1.57 GiB (88%)
Language                       : English
Default                        : Yes
Forced                         : No
Color primaries                : BT.709
Transfer characteristics       : BT.709
Matrix coefficients            : BT.709
Color range                    : Limited

Audio #1
ID                             : 2
Format                         : AC-3
Format/Info                    : Audio Coding 3
Mode extension                 : CM (complete main)
Format settings, Endianness    : Big
Codec ID                       : A_AC3
Duration                       : 42mn 7s
Bit rate mode                  : Constant
Bit rate                       : 192 Kbps
Channel(s)                     : 2 channels
Channel positions              : Front: L R
Sampling rate                  : 48.0 KHz
Bit depth                      : 16 bits
Compression mode               : Lossy
Stream size                    : 57.9 MiB (3%)
Title                          : DUB (ТВ3)
Language                       : Russian
Default                        : Yes
Forced                         : No

Audio #2
ID                             : 3
Format                         : AC-3
Format/Info                    : Audio Coding 3
Mode extension                 : CM (complete main)
Format settings, Endianness    : Big
Codec ID                       : A_AC3
Duration                       : 42mn 7s
Bit rate mode                  : Constant
Bit rate                       : 384 Kbps
Channel(s)                     : 6 channels
Channel positions              : Front: L C R, Side: L R, LFE
Sampling rate                  : 48.0 KHz
Bit depth                      : 16 bits
Compression mode               : Lossy
Stream size                    : 116 MiB (6%)
Title                          : Original
Language                       : English
Default                        : No
Forced                         : No

Text #1
ID                             : 4
Format                         : UTF-8
Codec ID                       : S_TEXT/UTF8
Codec ID/Info                  : UTF-8 Plain Text
Title                          : Full (Notabenoid)
Language                       : Russian
Default                        : No
Forced                         : No

Text #2
ID                             : 5
Format                         : UTF-8
Codec ID                       : S_TEXT/UTF8
Codec ID/Info                  : UTF-8 Plain Text
Title                          : Full (SDH)
Language                       : English
Default                        : No
Forced                         : No



Трекер:  [ 14-Апр-2018 17:48 ]

  

Скачать .torrent

Размер .torrent файла 81 KB


Размер: 31.66 GB
Хэш (hash) релиза: 7849cf103d2495fb5c3603de58061d2f7c9716ef
Подписка на обновления:

Торренты, похожие на Люцифер Lucifer скачать торрент

Форум Название Автор Размер S L Добавлен
Зарубежные сериалы ·· Люцифер / Lucifer / Сезон: 2 / Серии: 1-18 из 18 (Нэйтан Хоуп / Nathan Hope) [2016, США, фэнтези, драма, WEB-DL 720p] MVO (Newstudio, Lostfilm, Jaskier, Кравец, OmskBird) + Original + Subs (Rus, Eng) Galfimbul 3768757645135.1 GB 0 0 1508496896

13:54

20-Окт-17

Зарубежные сериалы ·· Люцифер / Lucifer / Сезон: 2 / Серии: 1-18 из 18 (Лен Уайзман, Мэтт Эрл Бисли, Эгил Эгилссон) [2016, США, фэнтези, драма, WEB-DL 1080p] DVO (Alternative Production) + Original Galfimbul 3526042326432.84 GB 0 0 1498208078

11:54

23-Июн-17

Зарубежные сериалы ·· Люцифер / Lucifer / Сезон 2 / Серии 1-18 (18) (Том Капинос) [2016, США, фэнтези, драма, HDTVrip] MVO (OMSKBIRD) Galfimbul 1561982361614.55 GB 0 0 1497034023

21:47

9-Июн-17

Зарубежные сериалы ·· Люцифер / Lucifer / Сезон: 2 / Серии: 1-18 из 18 (Лен Уайзман, Мэтт Эрл Бисли, Эгил Эгилссон) [2016, США, фэнтези, драма, HDTVRip] DVO (ColdFilm) + Original Galfimbul 103785656329.67 GB 0 0 1497034010

21:46

9-Июн-17

Зарубежные сериалы ·· Люцифер / Lucifer / Сезон: 2 / Серии: 1-18 из 18 (Лен Уайзман, Мэтт Эрл Бисли, Эгил Эгилссон) [2016, США, фэнтези, драма, WEB-DLRip] MVO (NewStudio) + Original Galfimbul 103875051529.67 GB 0 0 1497034001

21:46

9-Июн-17

Зарубежные сериалы ·· Люцифер / Lucifer / Сезон: 2 / Серии: 1-18 из 18 (Лен Уайзман, Мэтт Эрл Бисли, Эгил Эгилссон) [2016, США, фэнтези, драма, криминал, WEB-DLRip] MVO (Lostfilm) + Original Galfimbul 104798330889.76 GB 0 0 1497033988

21:46

9-Июн-17

Зарубежные сериалы ·· Люцифер / Lucifer / Сезон: 2 / Серии: 1-18 из 18 (Нэйтан Хоуп / Nathan Hope) [2016, США, фэнтези, драма, криминал, WEB-DL 1080p] MVO (Lostfilm, Jaskier. Кравец, OmskBird, NewStudio) + Original + Subs (Rus, Eng) Galfimbul 4432843825441.28 GB 0 0 1497029209

20:26

9-Июн-17

Еще никто не оставлял запись к записи скачать торрент Люцифер Lucifer . Будь первым!

!Обратная связь