Star gegen die Mächte des Bösen | The Carmilla Movie | Cara Lynn Shultz

Скачать через торрент Пространство The Expanse Фильм бесплатно в хорошем качестве torrent

Скачивайте на UnionPeer.org фильмы через торрент без регистрации. Новинки кино в хорошем качестве через торрент. На UnionPeer.org можно скачать через торрент фильмы 2014 и 2015 годов. Самые новые фильмы.

Скачать торрент Пространство The Expanse бесплатно через .torrent фильм мультфильм сериал

Статистика раздачи
Размер:  4.84 GB   |    Зарегистрирован:  1 месяц 9 дней   |    .torrent скачан:  106 раз   |   
Раздают:  1  
   
загрузка...
 
Автор Сообщение

Galfimbul

avatar Galfimbul



Пространство | The Expanse

Год выпуска: 2018
Страна: США
Жанр: фантастика, детектив
Продолжительность: ~ 00:45:00
Перевод: Профессиональный (многоголосый закадровый) | Jaskier
Режиссёр: Роберт Либерман, Терри МакДонаф, Джефф Вулнаф
В ролях: Шоре Агдашлу, Кэс Анвар, Уэс Чэтэм, Томас Джейн, Стивен Стрейт, Илайс Туфексис, Джейн Моффат, Сара Митич, Майкл Мюррей, Джо Делфин и др.
Описание: Через двести лет от дня сегодняшнего некий сыщик, привыкший всё доводить до конца при любых обстоятельствах, в рамках расследования дела об исчезновении молодой женщины оказывается на борту звездолета, капитан которого решает помочь детективу в его непростом деле. Величайший заговор в истории человечества гарантируется, как и его непременное раскрытие.

| |
Качество: WEB-DLRip
Формат: AVI
Видео: XviD, ~ 1500 kbps, 720x400 (16:9), 23.976 fps
Аудио 1: MP3, 48,0 КГц, 2 ch, 128 kbps - Rus
Аудио 2: MP3, 48,0 КГц, 2 ch, 128 kbps - Eng
Субтитры: отсутствуют
Реклама: Присутствует звуковая (два раза в начале и конце по 12 сек.)
Переведено и озвучено: студией Jaskier
Общее
Полное имя                               : D:\Яскъер\The Expanse. Season 3 (WEB-DLRip l 400p l Jaskier)\The.Expanse.S03E01.WEB-DLRip.Rus.Eng.Jaskier.avi
Формат                                   : AVI
Формат/Информация                        : Audio Video Interleave
Размер файла                             : 550 Мбайт
Продолжительность                        : 43 м. 37 с.
Общий поток                              : 1764 Кбит/сек
Программа кодирования                    : VirtualDubMod 1.5.10.3 | www.virtualdub-fr.org || (build 2550/release)
Библиотека кодирования                   : VirtualDubMod build 2550/release

Видео
Идентификатор                            : 0
Формат                                   : MPEG-4 Visual
Профиль формата                          : Advanced [email protected]
Настройки формата                        : BVOP1 / Custom Matrix
Параметр BVOP формата                    : 1
Параметр QPel формата                    : Нет
Параметр GMC формата                     : Без точки перехода
Параметр матрицы формата                 : Выборочная
Идентификатор кодека                     : XVID
Идентификатор кодека/Подсказка           : XviD
Продолжительность                        : 43 м. 37 с.
Битрейт                                  : 1494 Кбит/сек
Ширина                                   : 720 пикселей
Высота                                   : 400 пикселей
Соотношение сторон                       : 16:9
Частота кадров                           : 23,976 (24000/1001) кадра/сек
Цветовое пространство                    : YUV
Субдискретизация насыщенности            : 4:2:0
Битовая глубина                          : 8 бит
Тип развёртки                            : Прогрессивная
Метод сжатия                             : С потерями
Бит/(Пиксели*Кадры)                      : 0.216
Размер потока                            : 466 Мбайт (85%)
Библиотека кодирования                   : XviD 73

Аудио #1
Идентификатор                            : 1
Формат                                   : MPEG Audio
Версия формата                           : Version 1
Профиль формата                          : Layer 3
Настройки формата                        : Joint stereo / MS Stereo
Идентификатор кодека                     : 55
Идентификатор кодека/Подсказка           : MP3
Продолжительность                        : 43 м. 37 с.
Вид битрейта                             : Постоянный
Битрейт                                  : 128 Кбит/сек
Каналы                                   : 2 канала
Частота                                  : 48,0 КГц
Метод сжатия                             : С потерями
Размер потока                            : 39,9 Мбайт (7%)
Выравнивание                             : Соединение по промежуткам
Продолжительность промежутка             : 42  мс. (1,00 видеокадр)
Время предзагрузки промежутка            : 504  мс.

Аудио #2
Идентификатор                            : 2
Формат                                   : MPEG Audio
Версия формата                           : Version 1
Профиль формата                          : Layer 3
Настройки формата                        : Joint stereo / MS Stereo
Идентификатор кодека                     : 55
Идентификатор кодека/Подсказка           : MP3
Продолжительность                        : 43 м. 37 с.
Вид битрейта                             : Постоянный
Битрейт                                  : 128 Кбит/сек
Каналы                                   : 2 канала
Частота                                  : 48,0 КГц
Метод сжатия                             : С потерями
Размер потока                            : 39,9 Мбайт (7%)
Выравнивание                             : Соединение по промежуткам
Продолжительность промежутка             : 42  мс. (1,00 видеокадр)
Время предзагрузки промежутка            : 504  мс.
Когда раздача ведётся путём добавления новых серий, при каждом добавлении создётся новый торрент. Чтобы начать докачку новой серии, пользователям необходимо сделать следующее:
(1) остановить скачивание,
(2) удалить старый торрент у себя из клиента (старые серии удалять не надо),
(3) скачать новый торрент и запустить его у себя в клиенте вместо старого, при этом указать клиенту путь в старую папку, куда и должно происходить скачивание новых серий.
Ваш клиент при этом должен произвести хеширование (проверку) старой папки (если не производит сам - помогите ему сделать это), и будет докачивать только те серии, которых у вас ещё нет. Старые серии при этом не удаляются, а продолжают раздаваться!
Eсли вы уже удалили старые серии, то предотвратить повторную закачку старых серий можно, отжав галочку в соответсвующих местах при запуске нового торрента. По возможности, желательно не удалять старые серии как можно дольше, чтобы релизёр не столько продолжал раздавать старые серии, а смог сконцентрироваться на новых.



Трекер:  [ 11-Июн-2018 11:21 ]

  

Скачать .torrent

Размер .torrent файла 25 KB


Размер: 4.84 GB
Хэш (hash) релиза: 6f3c3502f08d1165cd22f0f23ad48a78a7dbe495
Подписка на обновления:

Торренты, похожие на Пространство The Expanse скачать торрент

Форум Название Автор Размер S L Добавлен
Зарубежные сериалы ·· Пространство / The Expanse / Сезон: 3 / Серии: 1-9 из 13 (Джефф Вулнаф, Терри МакДонаф, Роберт Либерман) [2018, США, Фантастика, триллер, драма, детектив, WEBRip 720p] MVO (AMS) Galfimbul 1312063220312.22 GB 0 0 1529282899

03:48

18-Июн-18

Зарубежные сериалы ·· Пространство / The Expanse / Сезон: 3 / Серии: 1-9 из 13 (Роберт Либерман, Терри МакДонаф, Джефф Вулнаф) [2018, США, Фантастика, триллер, драма, детектив, экранизация, WEBRip 720p] MVO (LostFilm) + Original Galfimbul 1312019015312.22 GB 0 0 1528022895

13:48

3-Июн-18

Зарубежные сериалы ·· Пространство / The Expanse / Сезон: 3 / Серии: 1-9 из 13 (Роберт Либерман, Терри МакДонаф, Джефф Вулнаф) [2018, США, фантастика, детектив, WEB-DL 1080p] MVO (Jaskier) + Original + Sub, Eng Galfimbul 1984799098718.48 GB 0 0 1523717334

17:48

14-Апр-18

Зарубежные сериалы ·· Пространство / The Expanse / Сезон: 3 / Серии: 1-9 из 13 (Роберт Либерман, Терри МакДонаф, Джефф Вулнаф) [2018, США, фантастика, детектив, WEB-DL 720p] MVO (Jaskier) + Original + Sub, Eng Galfimbul 87541831408.15 GB 0 0 1523717326

17:48

14-Апр-18

Зарубежные сериалы ·· Пространство / Экспансия / The Expanse / Сезон: 3 / Серии: 1-9 из 13 (Джефф Вулнаф, Терри МакДонаф, Роберт Либерман) [2018, США, Канада, фантастика, триллер, драма, детектив, WEB-DLRip] MVO (LostFilm) + Original + Subs (Rus, Eng) Galfimbul 81937440317.63 GB 0 0 1527760087

12:48

31-Май-18

Зарубежные сериалы ·· Пространство / Экспансия / The Expanse / Сезон: 3 / Серии: 1-9 из 13 (Роберт Либерман) [2018, США, фантастика, триллер, драма, детектив, WEBRip] MVO (Baibako) + Original Galfimbul 82022318087.64 GB 0 0 1523697491

12:18

14-Апр-18

Зарубежные сериалы ·· Пространство / Экспансия / The Expanse / Сезон: 3 / Серии: 1-9 из 13 (Роберт Либерман, Терри МакДонаф, Джефф Вулнаф) [2018, США, Фантастика, триллер, драма, детектив, экранизация, WEBRip] DVO (Gears Media) + Original Galfimbul 50577744104.71 GB 0 0 1523652499

23:48

13-Апр-18

Зарубежные сериалы ·· Пространство / Экспансия / The Expanse / Сезон: 3 / Серии: 1-9 из 13 (Роберт Либерман, Терри МакДонаф) [2018, США, фантастика, детектив, WEBRip] MVO (LostFilm) + Original Galfimbul 52393472004.88 GB 0 0 1523652490

23:48

13-Апр-18

Зарубежные сериалы ·· Пространство / Экспансия / The Expanse / Сезон: 3 / Серии: 1-9 из 13 (Роберт Либерман, Терри МакДонаф, Джефф Вулнаф) [2018, США, Фантастика, триллер, драма, детектив, экранизация, WEBRip 720p] DVO (Gears Media) + Original Galfimbul 94499843978.8 GB 0 0 1523648894

22:48

13-Апр-18

Зарубежные сериалы ·· Пространство / Экспансия / The Expanse / Сезон: 3 / Серии: 1-9 из 13 (Роберт Либерман / Robert Lieberman) [2018, США, фантастика, детектив, WEB-DL 1080p] MVO (OmskBird) + Original Galfimbul 2016920974418.78 GB 0 0 1523609292

11:48

13-Апр-18

bot

Раздача обновлена!
Перекачайте торрент-файл.

bot

Раздача обновлена!
Перекачайте торрент-файл.

bot

Раздача обновлена!
Перекачайте торрент-файл.

bot

Раздача обновлена!
Перекачайте торрент-файл.

bot

Раздача обновлена!
Перекачайте торрент-файл.

bot

Раздача обновлена!
Перекачайте торрент-файл.

bot

Раздача обновлена!
Перекачайте торрент-файл.

bot

Раздача обновлена!
Перекачайте торрент-файл.

Хотите добавить комментарий к записи скачать торрент Пространство The Expanse

!Обратная связь