APKPure 客戶端 | Trashsploitation | The Return Of Superman Special

Скачать через торрент Богатство Servet Фильм бесплатно в хорошем качестве torrent

Скачивайте на UnionPeer.org фильмы через торрент без регистрации. Новинки кино в хорошем качестве через торрент. На UnionPeer.org можно скачать через торрент фильмы 2014 и 2015 годов. Самые новые фильмы.

Скачать торрент Богатство Servet бесплатно через .torrent фильм мультфильм сериал

Статистика раздачи
Размер:  8.07 GB   |    Зарегистрирован:  2 месяца 13 дней   |    .torrent скачан:  75 раз   |   
Раздают:  1  
   
загрузка...
 
Автор Сообщение

Galfimbul

avatar Galfimbul


Богатство / Servet

Год выпуска: 2018
Страна: Турция
Производство: Ortaks Yapım
Жанр: Драма
Серии (количество): 1 (??)
Продолжительность: ~ 2:21:00 каждая серия
Перевод: любительский одноголосый закадровый (Анастасия Гайдаржи)
Субтитры: отсутствуют

Режиссёр: Emir Khalilzadeh / Эмир Кхализаде

В ролях: Юсуф Чим / Yusuf Çim - Джан Йигит
Бахар Шахин / Bahar Şahin - Ферах
Баран Бёлюкбаши / Baran Bölükbaşı
Джемре Гюмели / Cemre Gümeli - Ханде
Али Сюрмели / Ali Sürmeli - Кудрет Феттах
Али Атакан Сонмез / Ali Atakan Sönmez
Бекир Чичекдемир / Bekir Çiçekdemir
Тюляй Гюнал / Tülay Günal
Канболат Гёркем Арслан / Kanbolat Görkem Arslan
Алисия Капудаг / Alicia Kapudağ
Барыш Ялчын / Barış Yalçın
Бора Дженгиз / Bora Cengiz
Эврен Дуйал / Evren Duyal

Описание: Слоган сериала "Любовь – самое дорогое богатство в жизни"
В этом мире все стремятся к богатству, а единственным богатством можно назвать лишь – любовь. Ферах Феза 18-ти летняя девушка, одна из тех многих молодых людей, которые после совершеннолетия вынуждены покинуть сиротский приют. Однако у нее есть одно отличие – она не сирота. Хотя Ферах этого еще не знает, но у нее есть огромная семья и богатство, о котором она даже и не мечтала.
Джану Йигиту 29 лет. Точно так же, как и Ферах он потерял родителей. Хотя он рос, как приемыш, но был под опекой богатого бизнесмена, ничем не отличаясь от его родного сына имел возможность получать все что хотел. В этом молодом возрасте он имеет власть и деньги, которые немногим могут достаться. Он управляет всей большой семьей.
Однажды Кудрет Феттах, владелец "Феттах Холдинга", поручает Джану найти его внучку Ферах, чтобы передать ей часть положенного наследства. Однако Джан еще не знает, что этот путь принесет ему и Ферах много испытаний. Молодые люди влюбляются друг в друга, но им приходится отказаться от своей невинной любви, чтобы не убили их. Главный наследник Кудрета, его сын Йенер Феттах потребует, чтобы Ферах застрелили там же, где найдут. Ему не нужен претендент на часть его наследства…

Качество: WEBRip (720р)
Формат: MP4
Видео кодек: H.264
Аудио кодек: AAC
Видео: MPEG4 Video (H264) 1280x720 29.97fps 1967kbps
Аудио: AAC 44100Hz stereo 192kbps
Реклама:
отсутствует
General
Complete name : E:\1\Bogatstvo.2018.L1.WEBRip720p\Bogatstvo.s01.e01.2018.L1.WEBRip720p.mp4
Format : MPEG-4
Format profile : Base Media
Codec ID : isom (isom/iso2/avc1/mp41)
File size : 2.14 GiB
Duration : 2 h 21 min
Overall bit rate : 2 168 kb/s
Writing application : Lavf57.83.100

Video
ID : 1
Format : AVC
Format/Info : Advanced Video Codec
Format profile : [email protected]
Format settings, CABAC : Yes
Format settings, ReFrames : 4 frames
Codec ID : avc1
Codec ID/Info : Advanced Video Coding
Duration : 2 h 21 min
Bit rate : 1 980 kb/s
Width : 1 280 pixels
Height : 720 pixels
Display aspect ratio : 16:9
Frame rate mode : Constant
Frame rate : 29.970 (30000/1001) FPS
Color space : YUV
Chroma subsampling : 4:2:0
Bit depth : 8 bits
Scan type : Progressive
Bits/(Pixel*Frame) : 0.072
Stream size : 1.94 GiB (91%)
Writing library : x264 core 148
Encoding settings : cabac=1 / ref=2 / deblock=1:0:0 / analyse=0x3:0x113 / me=hex / subme=6 / psy=1 / psy_rd=1.00:0.00 / mixed_ref=1 / me_range=16 / chroma_me=1 / trellis=1 / 8x8dct=1 / cqm=0 / deadzone=21,11 / fast_pskip=1 / chroma_qp_offset=-2 / threads=6 / lookahead_threads=1 / sliced_threads=0 / nr=0 / decimate=1 / interlaced=0 / bluray_compat=0 / constrained_intra=0 / bframes=3 / b_pyramid=2 / b_adapt=1 / b_bias=0 / direct=1 / weightb=1 / open_gop=0 / weightp=1 / keyint=250 / keyint_min=25 / scenecut=40 / intra_refresh=0 / rc_lookahead=30 / rc=2pass / mbtree=1 / bitrate=1980 / ratetol=1.0 / qcomp=0.60 / qpmin=0 / qpmax=69 / qpstep=4 / cplxblur=20.0 / qblur=0.5 / vbv_maxrate=1980 / vbv_bufsize=3960 / nal_hrd=none / filler=0 / ip_ratio=1.40 / aq=1:1.00

Audio
ID : 2
Format : AAC
Format/Info : Advanced Audio Codec
Format profile : LC
Codec ID : 40
Duration : 2 h 21 min
Bit rate mode : Constant
Bit rate : 192 kb/s
Channel(s) : 2 channels
Channel positions : Front: L R
Sampling rate : 44.1 kHz
Frame rate : 43.066 FPS (1024 spf)
Compression mode : Lossy
Stream size : 194 MiB (9%)
Default : Yes
Alternate group : 1
Предыдущие и альтернативные раздачи

Трекер:  [ 07-Май-2018 14:55 ]

  

Скачать .torrent

Размер .torrent файла 21 KB


Размер: 8.07 GB
Хэш (hash) релиза: 2b0fb9c35d12953dea4dd37978d7c2302055cf0e
Подписка на обновления:

bot

Раздача обновлена!
Перекачайте торрент-файл.

bot

Раздача обновлена!
Перекачайте торрент-файл.

Хотите добавить комментарий к записи скачать торрент Богатство Servet

!Обратная связь