Property Crime in London 1850-Present
New uploader here.

Скачать через торрент О. Джей: Сделано в Америке O.J.: Made in America Фильм бесплатно в хорошем качестве torrent

Скачивайте на UnionPeer.org фильмы через торрент без регистрации. Новинки кино в хорошем качестве через торрент. На UnionPeer.org можно скачать через торрент фильмы 2014 и 2015 годов. Самые новые фильмы.

Скачать торрент О. Джей: Сделано в Америке O.J.: Made in America бесплатно через .torrent фильм мультфильм сериал

Статистика раздачи
Размер:  33.88 GB   |    Зарегистрирован:  9 дней   |    .torrent скачан:  30 раз   |   
Раздают:  1  
   
загрузка...
 
Автор Сообщение

Galfimbul

avatar Galfimbul


О. Джей: Сделано в Америке / O.J.: Made in America
Год выпуска: 2016
Страна: США
Жанр: Документальный, биография, спорт, криминал
Продолжительность: ~ 00:50:00

Перевод: Субтитры (Limp)

Режиссёр: Эзра Эдельман
В ролях: О Джей Симпсон, Карим Абдул-Джаббар, Мухаммед Али, Маркус Аллен, Беатрис Артур, Ф. Ли Бэйли, Паула Барбиери, Рона Баррет

Описание: Взлёты и падения звезды Американского футбола О. Джей Симпсона. Хроника событий от его юности в Лос-Анджелесе до суда за убийство, который разделил страну на два лагеря.



Ссылка на предыдущие и альтернативные раздачи

Качество: BDRip 1080p
Контейнер: MKV
Видео: AVC, 1920x1080 (16:9), 23.976 fps, 8.7 Mbps (0.175 bit/pixel)
Аудио: DTS, 48 KHz, 6 ch, 1509 kbps (Original)
Субтитры: Русские (внешние), английские
Реклама: Отсутствует
Complete name : D:\O.J.Made.In.America.2016.1080p\O.J.Made.In.America.Part.1.1080p.mkv
Format : Matroska
Format version : Version 2
File size : 6.56 GiB
Duration : 1 h 32 min
Overall bit rate : 10.2 Mb/s
Encoded date : UTC 2016-09-05 17:41:41
Writing application : mkvmerge v9.3.1 ('Mask Machine') 32bit
Writing library : libebml v1.3.4 + libmatroska v1.4.5

Video
ID : 1
Format : AVC
Format/Info : Advanced Video Codec
Format profile : [email protected]
Format settings : CABAC / 4 Ref Frames
Format settings, CABAC : Yes
Format settings, RefFrames : 4 frames
Codec ID : V_MPEG4/ISO/AVC
Duration : 1 h 32 min
Bit rate : 8 685 kb/s
Width : 1 920 pixels
Height : 1 080 pixels
Display aspect ratio : 16:9
Frame rate mode : Constant
Frame rate : 23.976 (24000/1001) FPS
Color space : YUV
Chroma subsampling : 4:2:0
Bit depth : 8 bits
Scan type : Progressive
Bits/(Pixel*Frame) : 0.175
Stream size : 5.58 GiB (85%)
Writing library : x264 core 148 r2705 3f5ed56
Encoding settings : cabac=1 / ref=4 / deblock=1:-3:-3 / analyse=0x3:0x113 / me=umh / subme=8 / psy=1 / psy_rd=1.00:0.00 / mixed_ref=1 / me_range=16 / chroma_me=1 / trellis=1 / 8x8dct=1 / cqm=0 / deadzone=21,11 / fast_pskip=1 / chroma_qp_offset=-2 / threads=12 / lookahead_threads=2 / sliced_threads=0 / nr=0 / decimate=1 / interlaced=0 / bluray_compat=0 / constrained_intra=0 / bframes=3 / b_pyramid=2 / b_adapt=2 / b_bias=0 / direct=3 / weightb=1 / open_gop=0 / weightp=2 / keyint=240 / keyint_min=24 / scenecut=40 / intra_refresh=0 / rc_lookahead=50 / rc=2pass / mbtree=1 / bitrate=8685 / ratetol=1.0 / qcomp=0.60 / qpmin=0 / qpmax=69 / qpstep=4 / cplxblur=20.0 / qblur=0.5 / vbv_maxrate=62500 / vbv_bufsize=78125 / nal_hrd=none / filler=0 / ip_ratio=1.40 / aq=1:1.00
Language : English
Default : Yes
Forced : No

Audio
ID : 2
Format : DTS
Format/Info : Digital Theater Systems
Mode : 16
Format settings, Endianness : Big
Codec ID : A_DTS
Duration : 1 h 32 min
Bit rate mode : Constant
Bit rate : 1 509 kb/s
Channel(s) : 6 channels
Channel positions : Front: L C R, Side: L R, LFE
Sampling rate : 48.0 kHz
Frame rate : 93.750 FPS (512 SPF)
Bit depth : 24 bits
Compression mode : Lossy
Stream size : 994 MiB (15%)
Language : English
Default : Yes
Forced : No

Text
ID : 3
Format : UTF-8
Codec ID : S_TEXT/UTF8
Codec ID/Info : UTF-8 Plain Text
Duration : 1 h 29 min
Bit rate : 94 b/s
Count of elements : 1373
Stream size : 61.6 KiB (0%)
Language : English
Default : No
Forced : No

Menu
00:00:00.000 : en:00:00:00.000
00:11:47.123 : en:00:11:47.123
00:21:45.721 : en:00:21:45.721
00:29:58.964 : en:00:29:58.964
00:41:04.295 : en:00:41:04.295
00:52:09.251 : en:00:52:09.251
01:04:03.631 : en:01:04:03.631
01:14:26.837 : en:01:14:26.837
01:26:06.870 : en:01:26:06.870


Трекер:  [ 14-Апр-2018 15:48 ]

  

Скачать .torrent

Размер .torrent файла 86 KB


Размер: 33.88 GB
Хэш (hash) релиза: 30e27d9cc5aa7a8f92d11be916fbf6db28333654
Подписка на обновления:

Еще никто не оставлял запись к записи скачать торрент О. Джей: Сделано в Америке O.J.: Made in America . Будь первым!

!Обратная связь