Halo Wars 2: Complete Edition [RePack] [RUS + ENG + 11 / ENG] (2017, UWP) (build-653398) | Hey! Febrero...Vol.2: El Crapajaro Loco !!! | Watch Movie 1080HD

Скачать через торрент Вам что, наша власть не нравится? Фильм бесплатно в хорошем качестве torrent

Скачивайте на UnionPeer.org фильмы через торрент без регистрации. Новинки кино в хорошем качестве через торрент. На UnionPeer.org можно скачать через торрент фильмы 2014 и 2015 годов. Самые новые фильмы.

Скачать торрент Вам что, наша власть не нравится? бесплатно через .torrent фильм мультфильм сериал

Статистика раздачи
Размер:  1.46 GB   |    Зарегистрирован:  4 месяца 1 день   |    .torrent скачан:  49 раз   |   
Раздают:  1  
   
загрузка...
 
Автор Сообщение

Galfimbul

avatar Galfimbul


Вам что, наша власть не нравится?

Жанр: комедия
Год выпуска: 1988
Продолжительность: 01:28:42

Режиссёр: Анатолий Добровский

В ролях: Андрей Петров, Марина Полицеймако, Владимир Стеклов, Любовь Полехина, Нина Дорошина, Виктор Павлов, Вячеслав Невинный, Лев Борисов, Юрий Воробьев, Алексей Консовский, Людмила Иванова, Капитолина Ильенко, Алексей Миронов, Виктор Степанов, Леонид Персиянинов, Сергей Рубеко, Николай Парфёнов, Николай Карнаухов, Марина Поляк, Олег Измайлов, Валентин Смирнитский, Виктор Филиппов и другие

Описание: В одной коммунальной квартире встал как-то вопрос о том, чтобы перенести одну из дверей немного в сторону и увеличить площадь комнаты — всего на каких-то полтора квадратных метра. Решать этот «сложный» вопрос, пришлось в итоге чуть ли не на самом высоком уровне.

Качество видео: SATRip
Формат видео: AVI

Видео: 720x320 (2.25:1), 25 fps, XviD build 73 ~2146 kbps avg, 0.37 bit/pixel
Аудио: 48 kHz, AC3 Dolby Digital, 2/0 (L,R) ch, ~192 kbps

...3006580

ajnjgbnth______________________teko
General
Complete name : H:\Вам.что,наша.власть.не.нравится.1988.satrip_1.46_[teko].avi
Format : AVI
Format/Info : Audio Video Interleave
File size : 1.46 GiB
Duration : 1h 28mn
Overall bit rate : 2 349 Kbps
Writing application : VirtualDubMod 1.5.10.3 | www.virtualdub-fr.org || (build 2550/release)
Writing library : VirtualDubMod build 2550/release

Video
ID : 0
Format : MPEG-4 Visual
Format profile : Advanced [email protected]
Format settings, BVOP : 2
Format settings, QPel : No
Format settings, GMC : No warppoints
Format settings, Matrix : Custom
Codec ID : XVID
Codec ID/Hint : XviD
Duration : 1h 28mn
Bit rate : 2 147 Kbps
Width : 720 pixels
Height : 320 pixels
Display aspect ratio : 2.25:1
Frame rate : 25.000 fps
Color space : YUV
Chroma subsampling : 4:2:0
Bit depth : 8 bits
Scan type : Progressive
Compression mode : Lossy
Bits/(Pixel*Frame) : 0.373
Stream size : 1.33 GiB (91%)
Writing library : XviD 73

Audio
ID : 1
Format : AC-3
Format/Info : Audio Coding 3
Mode extension : CM (complete main)
Format settings, Endianness : Big
Codec ID : 2000
Duration : 1h 28mn
Bit rate mode : Constant
Bit rate : 192 Kbps
Channel(s) : 2 channels
Channel positions : Front: L R
Sampling rate : 48.0 KHz
Frame rate : 31.250 fps (1536 spf)
Compression mode : Lossy
Stream size : 122 MiB (8%)
Alignment : Split accross interleaves
Interleave, duration : 40 ms (1.00 video frame)
Interleave, preload duratio : 500 ms
Релиз группы:





Трекер:  [ 14-Апр-2018 15:24 ]

  

Скачать .torrent

Размер .torrent файла 15 KB


Размер: 1.46 GB
Хэш (hash) релиза: cf73af55e3dce4dc3cf3f288807ee2faaac7c3d7
Подписка на обновления:

Торренты, похожие на Вам что, наша власть не нравится? скачать торрент

Форум Название Автор Размер S L Добавлен
Российские фильмы до 2016 ·%· Вам что, наша власть не нравится? (Анатолий Бобровский) [1988, комедия, DVBRip-AVC] Galfimbul 14595311231.36 GB 0 0 1532246050

10:54

22-Июл-18

Еще никто не оставлял запись к записи скачать торрент Вам что, наша власть не нравится? . Будь первым!

!Обратная связь