The Get Down | Read More.. | PicFocus 2.3

Скачать через торрент Долгий поцелуй на ночь The Long Kiss Goodnight бесплатно русская версия torrent активатор

Статистика раздачи
Размер:  10.55 GB   |    Зарегистрирован:  3 месяца 4 дня   |    .torrent скачан:  29 раз   |   
Раздают:  1  
   
загрузка...
 
Автор Сообщение

Galfimbul

avatar Galfimbul


Долгий поцелуй на ночь / The Long Kiss Goodnight
"Eight years ago she lost her memory. Now, a detective must help her remember the past before it buries them both. What's forgotten is not always gone"


Год выпуска: 1996
Страна: США
Жанр: боевик, триллер, драма, криминал, детектив
Продолжительность: 02:00:33

Перевод: Многоголосый закадровый перевод, двухголосый закадровый перевод и одноголосый закадровый авторский перевод
Оригинальная аудиодорожка: Есть
Cубтитры: Русские полные, английские полные и английские полные SDH

Режиссёр: Ренни Харлин
Сценарий: Шейн Блэк
Продюсер: Стефани Остин, Шейн Блэк, Ренни Харлин
Оператор: Гильермо Наварро
Композитор: Алан Сильвестри
Художник: Ховард Каммингс, Стив Арнольд, Дэннис Девенпорт
Монтаж: Уильям Голденберг
В ролях: Джина Дэвис, Сэмюэл Л. Джексон, Ивонн Зима, Крэйг Бирко, Брайан Кокс, Том Амандес, Патрик Мэлахайд, Дэвид Морс, Джозеф МакКенна, Мелина Канакаридис

Бюджет: $65 000 000
Сборы в США: $33 447 612
Сборы в мире: + $56 009 149 = $89 456 761

Мировая премьера: 11 октября 1996
Релиз на DVD: 29 ноября 2007, Союз-Видео

Описание: 8 лет назад школьная учительница Саманта Кейн перенесла полную потерю памяти. Она живет с 8-летней дочкой счастливой семейной жизнью и не подозревает о своем кровавом прошлом, ведь когда-то эта красивая женщина была агентом Чарли Бэлтимор, выполнявшим секретные заказы ЦРУ.
Шокированная неожиданным возвращением некоторых навыков и психологической подготовки профессионального киллера, Саманта пытается разобраться в своем прошлом. Детектив Митч Хенесси, начавший с расследования жизни простой учительницы, оказывается втянутым вместе с Самантой в секретную операцию ЦРУ.
Качество исходника: BD-Remux 1080p (HDClub)
Качество: BDRip
Тип: 720p
Контейнер: m4v
Видео: 1280x536 at 23.976 fps, MPEG-4 AVC, ~7000 kbps avg
Аудио#1: Russian: 48 kHz, ААС, 2/0 (L,R), ~160.00 kbps avg |Многоголосый закадровый, Киномания|
Аудио#2: Russian: 48 kHz, ААС, 2/0 (L,R), ~160.00 kbps avg |Двухголосый закадровый, П. Гланц и И. Королева|
Аудио#3: Russian: 48 kHz, ААС, 2/0 (L,R), ~160.00 kbps avg |Двухголосый закадровый, Союз-Видео|
Аудио#4: Russian: 48 kHz, ААС, 2/0 (L,R), ~160.00 kbps avg |Двухголосый закадровый, Союз-Видео с VHS'а|
Аудио#5: Russian: 48 kHz, ААС, 2/0 (L,R), ~160.00 kbps avg |Одноголосый закадровый, Андрей Гаврилов|
Аудио#6: Russian: 48 kHz, ААС, 2/0 (L,R), ~160.00 kbps avg |Одноголосый закадровый, Юрий Живов|
Аудио#7: Russian: 48 kHz, ААС, 2/0 (L,R), ~160.00 kbps avg |Одноголосый закадровый, Диктор CDV|
Аудио#8: Ukrainian: 48 kHz, ААС, 2/0 (L,R), ~160.00 kbps avg |Многоголосый закадровый, ICTV|
Аудио#9: English: 48 kHz, ААС, 2/0 (L,R), ~160.00 kbps avg
Аудио#10: Russian: 48 kHz, AC3, 3/2 (L,C,R,l,r) + LFE ch, ~640.00 kbps avg |Многоголосый закадровый, Киномания|
Аудио#11: Russian: 48 kHz, AC3, 3/2 (L,C,R,l,r) + LFE ch, ~640.00 kbps avg |Двухголосый закадровый, П. Гланц и И. Королева|
Аудио#12: Russian: 48 kHz, AC3, 3/2 (L,C,R,l,r) + LFE ch, ~448.00 kbps avg |Двухголосый закадровый, Союз-Видео|
Аудио#13: Russian: 48 kHz, AC3, 3/2 (L,C,R,l,r) + LFE ch, ~640.00 kbps avg |Одноголосый закадровый, Андрей Гаврилов|
Аудио#14: Russian: 48 kHz, AC3, 3/2 (L,C,R,l,r) + LFE ch, ~640.00 kbps avg |Одноголосый закадровый, Юрий Живов|
Аудио#15: Russian: 48 kHz, AC3, 3/2 (L,C,R,l,r) + LFE ch, ~384.00 kbps avg |Одноголосый закадровый, Диктор CDV|
Аудио#16: English: 48 kHz, AC3, 3/2 (L,C,R,l,r) + LFE ch, ~640.00 kbps avg
Субтитры №1: Russian: |Полные, Киномания|
Субтитры №2: Russian: |Полные, Союз-Видео с DVD|
Субтитры №3: Russian: |Полные, Престиж|
Субтитры №4: English: |Полные|
Субтитры №5: English: |Полные, SDH|
Шэйн Блэк стал первым сценаристом, продавшим сценарий за $3 миллиона.
Митч и Чарли пьют водку Finlandia. Режиссер фильма Ренни Харлин родом из Финляндии.
Средняя продолжительность кадра — 2,9 секунды.
По радио Саманта слушает песню Let it snow, let it snow, let it snow Дина Мартина. Та же самая песня играет в концовке фильма «Крепкий орешек 2», также поставленного Ренни Харлином.
По телевизору в отеле показывают «Долгое прощание» (1973).
Часть съёмок фильма прошла в отеле Windermere House в Мускоке, Онтарио, Канада. Во время съёмок в отеле произошел пожар, вследствие которого он выгорел дотла. Владельцы отеля посчитали съёмочную группу виновниками пожара. Однако доказательства данного обвинения так и не были найдены. Спустя несколько лет отель отстроили заново.
Джина Дэвис готовилась к сцене пытки, задерживая дыхание под водой во время приема ванны.
Сэм Кейн (Sam Caine) — это анаграмма от «amnesiac» (человек, страдающей амнезией).
В 1997 году рэпер Ноториус Биг записал песню Long Kiss Goodnight для альбома Life After Death.
В первом варианте сценария Митч умирал от полученных ранений.
В сцене драки Чарли и Тимоти, на 103 минуте фильма, Тимоти наносит Чарли ножом порез на правом боку. После окончания драки порез у Чарли оказывается на левом боку.

Name: The Long Kiss Goodnight
Artist: Renny Harlin
Genre: Action & Adventure
Release Date: 1996-10-11T08:00:00Z
Description: 8 лет назад школьная учительница Саманта Кейн перенесла полную потерю памяти. Она живет с 8-летней дочкой счастливой семейной жизнью и не подозревает о своем кровавом прошлом, ведь когда-то эта красивая женщина была агентом ... ЦРУ.
Long Description: 8 лет назад школьная учительница Саманта Кейн перенесла полную потерю памяти. Она живет с 8-летней дочкой счастливой семейной жизнью и не подозревает о своем кровавом прошлом, ведь когда-то эта красивая женщина была агентом Чарли Бэлтимор, выполнявшим секретные заказы ЦРУ.
Шокированная неожиданным возвращением некоторых навыков и психологической подготовки профессионального киллера, Саманта пытается разобраться в своем прошлом. Детектив Митч Хенесси, начавший с расследования жизни простой учительницы, оказывается втянутым вместе с Самантой в секретную операцию ЦРУ.
Rating: R
Rating Annotation: Rated R for a substantial amount of strong bloody violence, and for strong language.
Studio: Warner Bros.
Cast: Джина Дэвис, Сэмюэл Л. Джексон, Ивонн Зима, Крэйг Бирко, Брайан Кокс, Том Амандес, Патрик Мэлахайд, Дэвид Морс, Джозеф МакКенна, Мелина Канакаридис
Director: Ренни Харлин
Producers: Стефани Остин, Шейн Блэк, Ренни Харлин
Screenwriters: Шейн Блэк
Copyright: © 1996 New Line Productions Inc. All Rights Reserved.
contentID: 705951952
XID: Apple:vendor_id:1996-3589
Sort Name: Long Kiss Goodnight
General
Complete name                            : The Long Kiss Goodnight (HD).m4v
Format                                   : MPEG-4
Codec ID                                 : M4V  (M4V /M4A /mp42/isom)
File size                                : 10.5 GiB
Duration                                 : 2h 0mn
Overall bit rate mode                    : Variable
Overall bit rate                         : 12.5 Mbps
Movie name                               : The Long Kiss Goodnight
Performer                                : Renny Harlin
Director                                 : Ренни Харлин
Actor                                    : Джина Дэвис / Сэмюэл Л. Джексон / Ивонн Зима / Крэйг Бирко / Брайан Кокс / Том Амандес / Патрик Мэлахайд / Дэвид Морс / Джозеф МакКенна / Мелина Канакаридис
Screenplay by                            : Шейн Блэк
Producer                                 : Стефани Остин / Шейн Блэк / Ренни Харлин
Production studio                        : Warner Bros.
Genre                                    : Action & Adventure
ContentType                              : Short Film
Description                              : 8 лет назад школьная учительница Саманта Кейн перенесла полную потерю памяти. Она живет с 8-летней дочкой счастливой семейной жизнью и не подозревает о своем кровавом прошлом, ведь когда-то эта красивая женщина была агентом ... ЦРУ.
Recorded date                            : UTC 1996-10-11 08:00:00
Encoded date                             : UTC 2018-04-01 18:57:08
Tagged date                              : UTC 2018-04-01 19:26:44
Copyright                                : © 1996 New Line Productions Inc. All Rights Reserved.
Cover                                    : Yes
Rating                                   : None
Title/Sort                               : Long Kiss Goodnight
LongDescription                          : 8 лет назад школьная учительница Саманта Кейн перенесла полную потерю памяти. Она живет с 8-летней дочкой счастливой семейной жизнью и не подозревает о своем кровавом прошлом, ведь когда-то эта красивая женщина была агентом Чарли Бэлтимор, выполнявшим секретные заказы ЦРУ. / Шокированная неожиданным возвращением некоторых навыков и психологической подготовки профессионального киллера, Саманта пытается разобраться в своем прошлом. Детектив Митч Хенесси, начавший с расследования жизни простой учительницы, оказывается втянутым вместе с Самантой в секретную операцию ЦРУ.
HDVideo                                  : Yes
AppleStoreCatalogID                      : 705951952
Vendor                                   : Apple:vendor_id:1996-3589
ContentRating                            : mpaa|R|400|Rated R for a substantial amount of strong bloody violence, and for strong language.

Video #1
ID                                       : 1
Format                                   : AVC
Format/Info                              : Advanced Video Codec
Format profile                           : [email protected]
Format settings                          : 3 Ref Frames
Format settings, CABAC                   : No
Format settings, ReFrames                : 3 frames
Codec ID                                 : avc1
Codec ID/Info                            : Advanced Video Coding
Duration                                 : 2h 0mn
Source duration                          : 2h 0mn
Bit rate                                 : 7 000 Kbps
Width                                    : 1 280 pixels
Height                                   : 536 pixels
Display aspect ratio                     : 2.40:1
Frame rate mode                          : Variable
Frame rate                               : 23.976 (24000/1001) fps
Minimum frame rate                       : 23.974 fps
Maximum frame rate                       : 23.981 fps
Color space                              : YUV
Chroma subsampling                       : 4:2:0
Bit depth                                : 8 bits
Scan type                                : Progressive
Bits/(Pixel*Frame)                       : 0.426
Stream size                              : 5.88 GiB (56%)
Source stream size                       : 5.88 GiB (56%)
Title                                    : Main Program
Writing library                          : x264 core 142 r2479 dd79a61
Encoding settings                        : cabac=0 / ref=3 / deblock=1:-3:-2 / analyse=0x3:0x113 / me=umh / subme=9 / psy=1 / psy_rd=0.80:0.25 / mixed_ref=1 / me_range=32 / chroma_me=1 / trellis=0 / 8x8dct=1 / cqm=0 / deadzone=6,6 / fast_pskip=0 / chroma_qp_offset=-2 / threads=18 / lookahead_threads=1 / sliced_threads=0 / nr=0 / decimate=0 / interlaced=0 / bluray_compat=0 / constrained_intra=0 / bframes=3 / b_pyramid=0 / b_adapt=2 / b_bias=0 / direct=1 / weightb=0 / open_gop=0 / weightp=0 / keyint=240 / keyint_min=24 / scenecut=40 / intra_refresh=0 / rc_lookahead=40 / rc=2pass / mbtree=1 / bitrate=7000 / ratetol=1.0 / qcomp=0.80 / qpmin=0 / qpmax=69 / qpstep=4 / cplxblur=20.0 / qblur=0.5 / vbv_maxrate=9500 / vbv_bufsize=9500 / nal_hrd=none / filler=0 / ip_ratio=1.10 / aq=1:0.50
Language                                 : English
Encoded date                             : UTC 2018-04-01 18:57:08
Tagged date                              : UTC 2018-04-01 18:57:39
Color range                              : Limited
Color primaries                          : BT.709
Transfer characteristics                 : BT.709
Matrix coefficients                      : BT.709
Menus                                    : 23,24

Video #2
ID                                       : 24
Format                                   : JPEG
Codec ID                                 : jpeg
Duration                                 : 2h 0mn
Bit rate mode                            : Variable
Bit rate                                 : 238 bps
Width                                    : 640 pixels
Height                                   : 268 pixels
Display aspect ratio                     : 2.40:1
Frame rate mode                          : Constant
Frame rate                               : 0.001 fps
Color space                              : YUV
Chroma subsampling                       : 4:2:0
Bit depth                                : 8 bits
Compression mode                         : Lossy
Bits/(Pixel*Frame)                       : 1.388
Stream size                              : 290 KiB (0%)
Title                                    : Chapter Images
Language                                 : English
Default                                  : No
Encoded date                             : UTC 2018-04-01 19:26:25
Tagged date                              : UTC 2018-04-01 19:26:25
Menu For                                 : 1
ColorSpace_ICC                           : RGB

Audio #1
ID                                       : 2
Format                                   : AAC
Format/Info                              : Advanced Audio Codec
Format profile                           : LC
Codec ID                                 : mp4a-40-2
Duration                                 : 2h 0mn
Bit rate mode                            : Variable
Bit rate                                 : 165 Kbps
Maximum bit rate                         : 276 Kbps
Channel(s)                               : 2 channels
Channel positions                        : Front: L R
Sampling rate                            : 48.0 KHz
Frame rate                               : 46.875 fps (1024 SPF)
Compression mode                         : Lossy
Stream size                              : 142 MiB (1%)
Title                                    : Russian MVO Kinomaniya Stereo
Language                                 : Russian
Default                                  : Yes
Alternate group                          : 1
Encoded date                             : UTC 2018-04-01 18:57:08
Tagged date                              : UTC 2018-04-01 18:57:50
Fallback From                            : 11
Menus                                    : 23

Audio #2
ID                                       : 3
Format                                   : AAC
Format/Info                              : Advanced Audio Codec
Format profile                           : LC
Codec ID                                 : mp4a-40-2
Duration                                 : 2h 0mn
Bit rate mode                            : Variable
Bit rate                                 : 165 Kbps
Maximum bit rate                         : 276 Kbps
Channel(s)                               : 2 channels
Channel positions                        : Front: L R
Sampling rate                            : 48.0 KHz
Frame rate                               : 46.875 fps (1024 SPF)
Compression mode                         : Lossy
Stream size                              : 142 MiB (1%)
Title                                    : Russian DVO P.Glanz & I.Koroleva Stereo
Language                                 : Russian
Default                                  : No
Alternate group                          : 1
Encoded date                             : UTC 2018-04-01 18:57:08
Tagged date                              : UTC 2018-04-01 18:57:50
Fallback From                            : 12

Audio #3
ID                                       : 4
Format                                   : AAC
Format/Info                              : Advanced Audio Codec
Format profile                           : LC
Codec ID                                 : mp4a-40-2
Duration                                 : 2h 0mn
Bit rate mode                            : Variable
Bit rate                                 : 166 Kbps
Maximum bit rate                         : 275 Kbps
Channel(s)                               : 2 channels
Channel positions                        : Front: L R
Sampling rate                            : 48.0 KHz
Frame rate                               : 46.875 fps (1024 SPF)
Compression mode                         : Lossy
Stream size                              : 143 MiB (1%)
Title                                    : Russian DVO Souzh-Video Stereo
Language                                 : Russian
Default                                  : No
Alternate group                          : 1
Encoded date                             : UTC 2018-04-01 18:57:08
Tagged date                              : UTC 2018-04-01 18:57:50
Fallback From                            : 13

Audio #4
ID                                       : 5
Format                                   : AAC
Format/Info                              : Advanced Audio Codec
Format profile                           : LC
Codec ID                                 : mp4a-40-2
Duration                                 : 2h 0mn
Bit rate mode                            : Variable
Bit rate                                 : 164 Kbps
Maximum bit rate                         : 283 Kbps
Channel(s)                               : 2 channels
Channel positions                        : Front: L R
Sampling rate                            : 48.0 KHz
Frame rate                               : 46.875 fps (1024 SPF)
Compression mode                         : Lossy
Stream size                              : 141 MiB (1%)
Title                                    : Russian DVO Souzh-Video from VHS Stereo
Language                                 : Russian
Default                                  : No
Alternate group                          : 1
Encoded date                             : UTC 2018-04-01 18:57:08
Tagged date                              : UTC 2018-04-01 18:57:50

Audio #5
ID                                       : 6
Format                                   : AAC
Format/Info                              : Advanced Audio Codec
Format profile                           : LC
Codec ID                                 : mp4a-40-2
Duration                                 : 2h 0mn
Bit rate mode                            : Variable
Bit rate                                 : 165 Kbps
Maximum bit rate                         : 276 Kbps
Channel(s)                               : 2 channels
Channel positions                        : Front: L R
Sampling rate                            : 48.0 KHz
Frame rate                               : 46.875 fps (1024 SPF)
Compression mode                         : Lossy
Stream size                              : 142 MiB (1%)
Title                                    : Russian AVO A.Gavrilov Stereo
Language                                 : Russian
Default                                  : No
Alternate group                          : 1
Encoded date                             : UTC 2018-04-01 18:57:08
Tagged date                              : UTC 2018-04-01 18:57:50
Fallback From                            : 14

Audio #6
ID                                       : 7
Format                                   : AAC
Format/Info                              : Advanced Audio Codec
Format profile                           : LC
Codec ID                                 : mp4a-40-2
Duration                                 : 2h 0mn
Bit rate mode                            : Variable
Bit rate                                 : 165 Kbps
Maximum bit rate                         : 289 Kbps
Channel(s)                               : 2 channels
Channel positions                        : Front: L R
Sampling rate                            : 48.0 KHz
Frame rate                               : 46.875 fps (1024 SPF)
Compression mode                         : Lossy
Stream size                              : 142 MiB (1%)
Title                                    : Russian AVO U.Zhivov Stereo
Language                                 : Russian
Default                                  : No
Alternate group                          : 1
Encoded date                             : UTC 2018-04-01 18:57:08
Tagged date                              : UTC 2018-04-01 18:57:50
Fallback From                            : 15

Audio #7
ID                                       : 8
Format                                   : AAC
Format/Info                              : Advanced Audio Codec
Format profile                           : LC
Codec ID                                 : mp4a-40-2
Duration                                 : 2h 0mn
Bit rate mode                            : Variable
Bit rate                                 : 165 Kbps
Maximum bit rate                         : 256 Kbps
Channel(s)                               : 2 channels
Channel positions                        : Front: L R
Sampling rate                            : 48.0 KHz
Frame rate                               : 46.875 fps (1024 SPF)
Compression mode                         : Lossy
Stream size                              : 142 MiB (1%)
Title                                    : Russian AVO Dictor CDV Stereo
Language                                 : Russian
Default                                  : No
Alternate group                          : 1
Encoded date                             : UTC 2018-04-01 18:57:09
Tagged date                              : UTC 2018-04-01 18:57:50
Fallback From                            : 16

Audio #8
ID                                       : 9
Format                                   : AAC
Format/Info                              : Advanced Audio Codec
Format profile                           : LC
Codec ID                                 : mp4a-40-2
Duration                                 : 2h 0mn
Bit rate mode                            : Variable
Bit rate                                 : 164 Kbps
Maximum bit rate                         : 282 Kbps
Channel(s)                               : 2 channels
Channel positions                        : Front: L R
Sampling rate                            : 48.0 KHz
Frame rate                               : 46.875 fps (1024 SPF)
Compression mode                         : Lossy
Stream size                              : 142 MiB (1%)
Title                                    : Ukrainian MVO ICTV Stereo
Language                                 : Ukrainian
Default                                  : No
Alternate group                          : 1
Encoded date                             : UTC 2018-04-01 18:57:09
Tagged date                              : UTC 2018-04-01 18:57:50

Audio #9
ID                                       : 10
Format                                   : AAC
Format/Info                              : Advanced Audio Codec
Format profile                           : LC
Codec ID                                 : mp4a-40-2
Duration                                 : 2h 0mn
Bit rate mode                            : Variable
Bit rate                                 : 165 Kbps
Maximum bit rate                         : 276 Kbps
Channel(s)                               : 2 channels
Channel positions                        : Front: L R
Sampling rate                            : 48.0 KHz
Frame rate                               : 46.875 fps (1024 SPF)
Compression mode                         : Lossy
Stream size                              : 143 MiB (1%)
Title                                    : English Stereo
Language                                 : English
Default                                  : No
Alternate group                          : 1
Encoded date                             : UTC 2018-04-01 18:57:09
Tagged date                              : UTC 2018-04-01 18:57:50
Fallback From                            : 17

Audio #10
ID                                       : 11
Format                                   : AC-3
Format/Info                              : Audio Coding 3
Codec ID                                 : ac-3
Duration                                 : 2h 0mn
Bit rate mode                            : Constant
Bit rate                                 : 640 Kbps
Channel(s)                               : 6 channels
Channel positions                        : Front: L C R, Side: L R, LFE
Sampling rate                            : 48.0 KHz
Frame rate                               : 31.250 fps (1536 SPF)
Bit depth                                : 16 bits
Compression mode                         : Lossy
Stream size                              : 552 MiB (5%)
Title                                    : Russian MVO Kinomaniya DD 5.1
Language                                 : Russian
Service kind                             : Complete Main
Default                                  : Inherited From: 2
Alternate group                          : 1
Encoded date                             : UTC 2018-04-01 18:57:09
Tagged date                              : UTC 2018-04-01 18:57:45
Fallback To                              : 2

Audio #11
ID                                       : 12
Format                                   : AC-3
Format/Info                              : Audio Coding 3
Codec ID                                 : ac-3
Duration                                 : 2h 0mn
Bit rate mode                            : Constant
Bit rate                                 : 640 Kbps
Channel(s)                               : 6 channels
Channel positions                        : Front: L C R, Side: L R, LFE
Sampling rate                            : 48.0 KHz
Frame rate                               : 31.250 fps (1536 SPF)
Bit depth                                : 16 bits
Compression mode                         : Lossy
Stream size                              : 552 MiB (5%)
Title                                    : Russian DVO P.Glanz & I.Koroleva DD 5.1
Language                                 : Russian
Service kind                             : Complete Main
Default                                  : No
Alternate group                          : 1
Encoded date                             : UTC 2018-04-01 18:57:09
Tagged date                              : UTC 2018-04-01 18:57:45
Fallback To                              : 3

Audio #12
ID                                       : 13
Format                                   : AC-3
Format/Info                              : Audio Coding 3
Codec ID                                 : ac-3
Duration                                 : 2h 0mn
Bit rate mode                            : Constant
Bit rate                                 : 448 Kbps
Channel(s)                               : 6 channels
Channel positions                        : Front: L C R, Side: L R, LFE
Sampling rate                            : 48.0 KHz
Frame rate                               : 31.250 fps (1536 SPF)
Bit depth                                : 16 bits
Compression mode                         : Lossy
Stream size                              : 386 MiB (4%)
Title                                    : Russian DVO Souzh-Video DD 5.1
Language                                 : Russian
Service kind                             : Complete Main
Default                                  : No
Alternate group                          : 1
Encoded date                             : UTC 2018-04-01 18:57:09
Tagged date                              : UTC 2018-04-01 18:57:45
Fallback To                              : 4

Audio #13
ID                                       : 14
Format                                   : AC-3
Format/Info                              : Audio Coding 3
Codec ID                                 : ac-3
Duration                                 : 2h 0mn
Bit rate mode                            : Constant
Bit rate                                 : 640 Kbps
Channel(s)                               : 6 channels
Channel positions                        : Front: L C R, Side: L R, LFE
Sampling rate                            : 48.0 KHz
Frame rate                               : 31.250 fps (1536 SPF)
Bit depth                                : 16 bits
Compression mode                         : Lossy
Stream size                              : 552 MiB (5%)
Title                                    : Russian AVO A.Gavrilov DD 5.1
Language                                 : Russian
Service kind                             : Complete Main
Default                                  : No
Alternate group                          : 1
Encoded date                             : UTC 2018-04-01 18:57:09
Tagged date                              : UTC 2018-04-01 18:57:45
Fallback To                              : 6

Audio #14
ID                                       : 15
Format                                   : AC-3
Format/Info                              : Audio Coding 3
Codec ID                                 : ac-3
Duration                                 : 2h 0mn
Bit rate mode                            : Constant
Bit rate                                 : 640 Kbps
Channel(s)                               : 6 channels
Channel positions                        : Front: L C R, Side: L R, LFE
Sampling rate                            : 48.0 KHz
Frame rate                               : 31.250 fps (1536 SPF)
Bit depth                                : 16 bits
Compression mode                         : Lossy
Stream size                              : 552 MiB (5%)
Title                                    : Russian AVO U.Zhivov DD 5.1
Language                                 : Russian
Service kind                             : Complete Main
Default                                  : No
Alternate group                          : 1
Encoded date                             : UTC 2018-04-01 18:57:09
Tagged date                              : UTC 2018-04-01 18:57:45
Fallback To                              : 7

Audio #15
ID                                       : 16
Format                                   : AC-3
Format/Info                              : Audio Coding 3
Codec ID                                 : ac-3
Duration                                 : 2h 0mn
Bit rate mode                            : Constant
Bit rate                                 : 384 Kbps
Channel(s)                               : 6 channels
Channel positions                        : Front: L C R, Side: L R, LFE
Sampling rate                            : 48.0 KHz
Frame rate                               : 31.250 fps (1536 SPF)
Bit depth                                : 16 bits
Compression mode                         : Lossy
Stream size                              : 331 MiB (3%)
Title                                    : Russian AVO Dictor CDV DD 5.1
Language                                 : Russian
Service kind                             : Complete Main
Default                                  : No
Alternate group                          : 1
Encoded date                             : UTC 2018-04-01 18:57:09
Tagged date                              : UTC 2018-04-01 18:57:45
Fallback To                              : 8

Audio #16
ID                                       : 17
Format                                   : AC-3
Format/Info                              : Audio Coding 3
Codec ID                                 : ac-3
Duration                                 : 2h 0mn
Bit rate mode                            : Constant
Bit rate                                 : 640 Kbps
Channel(s)                               : 6 channels
Channel positions                        : Front: L C R, Side: L R, LFE
Sampling rate                            : 48.0 KHz
Frame rate                               : 31.250 fps (1536 SPF)
Bit depth                                : 16 bits
Compression mode                         : Lossy
Stream size                              : 552 MiB (5%)
Title                                    : English DD 5.1
Language                                 : English
Service kind                             : Complete Main
Default                                  : No
Alternate group                          : 1
Encoded date                             : UTC 2018-04-01 18:57:09
Tagged date                              : UTC 2018-04-01 18:57:45
Fallback To                              : 10

Text #1
ID                                       : 18
Format                                   : Timed Text
Muxing mode                              : sbtl
Codec ID                                 : tx3g
Duration                                 : 1h 54mn
Bit rate mode                            : Variable
Bit rate                                 : 81 bps
Stream size                              : 67.8 KiB (0%)
Title                                    : Russian from Kinomaniya Subtitle
Language                                 : Russian
Default                                  : Yes
Forced                                   : No
Alternate group                          : 2
Encoded date                             : UTC 2018-04-01 19:03:22
Tagged date                              : UTC 2018-04-01 19:03:23

Text #2
ID                                       : 19
Format                                   : Timed Text
Muxing mode                              : sbtl
Codec ID                                 : tx3g
Duration                                 : 1h 54mn
Bit rate mode                            : Variable
Bit rate                                 : 74 bps
Stream size                              : 62.0 KiB (0%)
Title                                    : Russian from Souz-Video DVD Subtitle
Language                                 : Russian
Default                                  : No
Forced                                   : No
Alternate group                          : 2
Encoded date                             : UTC 2018-04-01 19:04:03
Tagged date                              : UTC 2018-04-01 19:04:03

Text #3
ID                                       : 20
Format                                   : Timed Text
Muxing mode                              : sbtl
Codec ID                                 : tx3g
Duration                                 : 1h 54mn
Bit rate mode                            : Variable
Bit rate                                 : 96 bps
Stream size                              : 79.7 KiB (0%)
Title                                    : Russian from Prestizh Subtitle
Language                                 : Russian
Default                                  : No
Forced                                   : No
Alternate group                          : 2
Encoded date                             : UTC 2018-04-01 19:04:20
Tagged date                              : UTC 2018-04-01 19:04:20

Text #4
ID                                       : 21
Format                                   : Timed Text
Muxing mode                              : sbtl
Codec ID                                 : tx3g
Duration                                 : 1h 53mn
Bit rate mode                            : Variable
Bit rate                                 : 55 bps
Stream size                              : 45.9 KiB (0%)
Title                                    : English Subtitle
Language                                 : English
Default                                  : No
Forced                                   : No
Alternate group                          : 2
Encoded date                             : UTC 2018-04-01 19:24:23
Tagged date                              : UTC 2018-04-01 19:24:23

Text #5
ID                                       : 22
Format                                   : Timed Text
Muxing mode                              : sbtl
Codec ID                                 : tx3g
Duration                                 : 2h 0mn
Bit rate mode                            : Variable
Bit rate                                 : 55 bps
Stream size                              : 48.3 KiB (0%)
Title                                    : English SDH Subtitle
Language                                 : English
Default                                  : No
Forced                                   : No
Alternate group                          : 2
Encoded date                             : UTC 2018-04-01 19:24:23
Tagged date                              : UTC 2018-04-01 19:24:23

Menu #1
00:00:00.000                             : Opening Credits
00:09:05.920                             : Main Title
00:22:07.034                             : Bed Agreement
00:32:35.870                             : Party Crashers
00:47:33.934                             : Eye-Opening Chat
01:03:52.703                             : Mom's Cooking
01:15:14.593                             : A Cold, Hard Lesson
01:28:16.207                             : Visitor From the Past
01:36:53.849                             : Quest for the Truth
01:47:25.021                             : Calling Information

Menu #2
ID                                       : 23
Codec ID                                 : text
Duration                                 : 2h 0mn
Title                                    : Chapter Titles
Language                                 : English
Encoded date                             : UTC 2018-04-01 19:26:20
Tagged date                              : UTC 2018-04-01 19:26:20
Menu For                                 : 2,1
00:00:00.000                             : Opening Credits
00:09:05.920                             : Main Title
00:22:07.034                             : Bed Agreement
00:32:35.870                             : Party Crashers
00:47:33.934                             : Eye-Opening Chat
01:03:52.703                             : Mom's Cooking
01:15:14.593                             : A Cold, Hard Lesson
01:28:16.207                             : Visitor From the Past
01:36:53.849                             : Quest for the Truth
01:47:25.021                             : Calling Information
Bit rate mode                            : VBR
HandBrakeCLI -i "/The Long Kiss Goodnight.1996.BD-Remux.HDClub/BDMV/STREAM/00000.m2ts" -t 1 -o The.Long.Kiss.Goodnight.720p.eng.m4v -f mp4 -4 -O -w 1280 -l 536 --crop 140:140::0 --modulus 8 -e x264 -b 7000 -2 -a none -x cabac=0:ref=3:me=umh:b-pyramid=none:b-adapt=2:weightb=0:trellis=0:weightp=0:vbv-maxrate=9500:vbv-bufsize=9500:subq=9:merange=32:deblock=-3,-2:qcomp=0.80:qpmin=0:qpmax=69:fast_pskip=0:aq-strength=0.5:no-dct-decimate=1:psy-rd=0.80,0.25:ipratio=1.1:pbratio=1.1:deadzone-inter=6:deadzone-intra=6 --verbose=1

x264 [info]: frame I:2037  Avg QP:17.61  size: 82376
x264 [info]: frame P:56596 Avg QP:18.72  size: 52695
x264 [info]: frame B:114792 Avg QP:20.20  size: 27564
x264 [info]: consecutive B-frames:  2.8% 15.7% 33.8% 47.7%
x264 [info]: mb I  I16..4:  8.4% 69.3% 22.2%
x264 [info]: mb P  I16..4:  2.5% 23.6%  4.0%  P16..4: 35.0% 22.1%  8.8%  0.0%  0.0%    skip: 4.0%
x264 [info]: mb B  I16..4:  0.2%  5.4%  0.7%  B16..8: 31.2% 14.3%  2.5%  direct:12.3%  skip:33.4%  L0:32.8% L1:32.2% BI:35.0%
x264 [info]: 8x8 transform intra:79.8% inter:45.0%
x264 [info]: coded y,uvDC,uvAC intra: 93.2% 82.4% 64.5% inter: 52.0% 31.2% 14.7%
x264 [info]: i16 v,h,dc,p: 34% 12%  9% 45%
x264 [info]: i8 v,h,dc,ddl,ddr,vr,hd,vl,hu: 11%  8%  8% 10% 14% 13% 13% 11% 11%
x264 [info]: i4 v,h,dc,ddl,ddr,vr,hd,vl,hu: 12%  8%  3% 11% 17% 15% 13% 11%  9%
x264 [info]: i8c dc,h,v,p: 54% 16% 18% 12%
x264 [info]: ref P L0: 66.8% 20.3% 13.0%
x264 [info]: ref B L0: 78.1% 21.9%
x264 [info]: kb/s:6983.53
<div class="q-wrap">
<div class="q-head"><b>Цитата:</b></div>
<div class="q">

Субтитры взяты из раздачи;
Многоголосый перевод Киномании взят с DVD, спасибо vladwolf;
Двухголосый перевод Союз-Видео взят с этого DVD, спасибо [email protected];
За аудиодорожку с переводом Союз-Видео VHS спасибо utas;
За аудиодорожку с украинским переводом канала ICTV спасибо robotron005;
Перевод Гаврилова взят с DVD, спасибо Kordalan;
За переводы "Гланц и Королева" и Живова спасибо сайту Петра Гланца;
За аудиодорожку CDV спасибо DEVISION2;
Переводы 1,2,6,7 получены путем микширования чистого голоса с оригиналом;
Телевизионные переводы 4 и 5 отреставрированы - теперь они в стерео.

</div>
</div>
Релиз подготовлен для просмотра на Apple TV, iPad, iPhone, iPod Touch.
Для просмотра данного релиза на компьютере с ОС Windows рекомендуется использовать VLC media player

Трекер:  [ 14-Апр-2018 15:06 ]

  

Скачать .torrent

Размер .torrent файла 106 KB


Размер: 10.55 GB
Хэш (hash) релиза: e57b943308d2260a3cbfbb022f63576850dc60c0

Еще никто не оставлял запись к записи скачать торрент Долгий поцелуй на ночь The Long Kiss Goodnight . Будь первым!

!Обратная связь