Crepusculo 2 | Beautiful Mixed Wallpapers Pack 802 | Post Malone Goes Undercover on Twitter, Facebook, Quora, and Reddit | GQ

Скачать через торрент Убивая Еву Killing Eve Фильм бесплатно в хорошем качестве torrent

Скачивайте на UnionPeer.org фильмы через торрент без регистрации. Новинки кино в хорошем качестве через торрент. На UnionPeer.org можно скачать через торрент фильмы 2014 и 2015 годов. Самые новые фильмы.

Скачать торрент Убивая Еву Killing Eve бесплатно через .torrent фильм мультфильм сериал

Статистика раздачи
Размер:  4.19 GB   |    Зарегистрирован:  1 месяц 9 дней   |    .torrent скачан:  143 раза   |   
Раздают:  1  
   
загрузка...
 
Автор Сообщение

Galfimbul

avatar Galfimbul


Убивая Еву / Killing Eve
Год выпуска: 2018
Страна: США
Жанр: Триллер
Продолжительность: ~00:44:00
Перевод: Профессиональный (многоголосый закадровый) | Newstudio
Режиссёр: Джон Ист, Дэймон Томас, Гарри Брэдбир
В ролях: Сандра О, Джоди Комер, Фиона Шоу, Ким Бодния, Оуэн МакДоннел, Кирби Хауэлл-Баптисте, Шон Делани, Даррен Бойд, Хелена Холмс, Дэвид Агранов
Описание: Проект, в основу которого легли романы Люка Дженнингса, повествует о наёмной убийце-психопатке Вилланелле и охотящейся на неё Еве — сотруднице службы безопасности, давно мечтавшей поменять бумажную работу на оперативную. Так начинается смертельно опасная, полная юмора и экшена игра в кошки-мышки между элегантной, талантливой убийцей и смышлёной оперативницей — обе женщины равно умны и одинаково одержимы друг другом.


Качество: WEB-DLRip
Формат: AVI
Видео: XviD, 720x400, 23,976 fps, ~1500 kbps
Аудио #1: 48 kHz, MPEG Layer 3, 2 ch, ~128.00 kbps | Rus
Аудио #2: 48 kHz, MPEG Layer 3, 2 ch, ~128.00 kbps | Eng
Субтитры: Русские (форсированные), английские
Реклама: Отсутствует
Format : AVI
Format/Info : Audio Video Interleave
File size : 557 MiB
Duration : 43 min 53 s
Overall bit rate : 1 774 kb/s
Writing application : VirtualDubMod 1.5.10.2 (build 2540/release)
Writing library : VirtualDubMod build 2540/release

Video
ID : 0
Format : MPEG-4 Visual
Format profile : Advanced [email protected]
Format settings : BVOP1 / Custom Matrix
Format settings, BVOP : 1
Format settings, QPel : No
Format settings, GMC : No warppoints
Format settings, Matrix : Custom
Codec ID : XVID
Codec ID/Hint : XviD
Duration : 43 min 53 s
Bit rate : 1 504 kb/s
Width : 720 pixels
Height : 400 pixels
Display aspect ratio : 16:9
Frame rate : 23.976 (24000/1001) FPS
Color space : YUV
Chroma subsampling : 4:2:0
Bit depth : 8 bits
Scan type : Progressive
Compression mode : Lossy
Bits/(Pixel*Frame) : 0.218
Stream size : 472 MiB (85%)
Writing library : XviD 73

Audio #1
ID : 1
Format : MPEG Audio
Format version : Version 1
Format profile : Layer 3
Format settings : Joint stereo / MS Stereo
Codec ID : 55
Codec ID/Hint : MP3
Duration : 43 min 53 s
Bit rate mode : Constant
Bit rate : 128 kb/s
Channel(s) : 2 channels
Sampling rate : 48.0 kHz
Compression mode : Lossy
Stream size : 40.2 MiB (7%)
Alignment : Split accross interleaves
Interleave, duration : 42 ms (1.00 video frame)
Interleave, preload duratio : 500 ms

Audio #2
ID : 2
Format : MPEG Audio
Format version : Version 1
Format profile : Layer 3
Format settings : Joint stereo / MS Stereo
Codec ID : 55
Codec ID/Hint : MP3
Duration : 43 min 53 s
Bit rate mode : Constant
Bit rate : 128 kb/s
Channel(s) : 2 channels
Sampling rate : 48.0 kHz
Compression mode : Lossy
Stream size : 40.2 MiB (7%)
Alignment : Split accross interleaves
Interleave, duration : 42 ms (1.00 video frame)
Interleave, preload duratio : 500 ms


Трекер:  [ 11-Июн-2018 11:21 ]

  

Скачать .torrent

Размер .torrent файла 22 KB


Размер: 4.19 GB
Хэш (hash) релиза: 97ae0eecfe8b484b5db7320f828984d20ca0fdff
Подписка на обновления:

Торренты, похожие на Убивая Еву Killing Eve скачать торрент

Форум Название Автор Размер S L Добавлен
Зарубежные сериалы ·· Убивая Еву / Killing Eve / Сезон: 1 / Серии: 1-8 из 8 (Фиби Уоллер-Бридж / Phoebe Waller-Bridge) [2018, Великобритания, США, триллер, драма, WEBRip-AVC] MVO (NewStudio) Galfimbul 51139363754.76 GB 0 0 1525538891

19:48

5-Май-18

Зарубежные сериалы ·· Убивая Еву / Killing Eve / Сезон: 1 / Серии: 1-8 из 8 (Джон Ист) [2018, США, Триллер, WEB-DL 720p] MVO (NewStudio) + Original + Subs (Rus, Eng) Galfimbul 1226925789211.43 GB 0 0 1523819886

22:18

15-Апр-18

Зарубежные сериалы ·%· Убивая Еву / Killing Eve / Сезон: 1 / Серии: 1-7 из 8 (Джон Ист, Дэймон Томас, Гарри Брэдбир) [2018, Великобритания, триллер, драма, WEB-DL 720p] MVO (LostFilm) + Original + Subs (Eng) Galfimbul 76693366517.14 GB 0 0 1530362891

15:48

30-Июн-18

Зарубежные сериалы ·%· Убивая Еву / Killing Eve / Сезон: 1 / Серии: 1-6 из 8 (Джон Ист, Дэймон Томас, Гарри Брэдбир) [2018, Великобритания, триллер, драма, WEB-DLRip] MVO (LostFilm) + Original + Sub (Eng) Galfimbul 53121747534.95 GB 0 0 1530193692

16:48

28-Июн-18

bot

Раздача обновлена!
Перекачайте торрент-файл.

bot

Раздача обновлена!
Перекачайте торрент-файл.

bot

Раздача обновлена!
Перекачайте торрент-файл.

bot

Раздача обновлена!
Перекачайте торрент-файл.

bot

Раздача обновлена!
Перекачайте торрент-файл.

bot

Раздача обновлена!
Перекачайте торрент-файл.

bot

Раздача обновлена!
Перекачайте торрент-файл.

Хотите добавить комментарий к записи скачать торрент Убивая Еву Killing Eve

!Обратная связь