Aneki no Kounai Kaikinbi Sub Ita Streaming & Download
La Trampa BluRay 1080p

Скачать через торрент Охота на воров Den of Thieves бесплатно русская версия torrent активатор

Статистика раздачи
Размер:  5.04 GB   |    Зарегистрирован:  10 дней   |    .torrent скачан:  29 раз   |   
Раздают:  1  
   
загрузка...
 
Автор Сообщение

Galfimbul

avatar Galfimbul


Охота на воров / Den of Thieves
-

6.652 / 10 7.10 / 10
Год выпуска: 2018
Страна: США
Жанр: Боевик, триллер, драма, криминал, детектив
Продолжительность: 02:20:01

Перевод: Дублированный (iTunes)
Оригинальная аудиодорожка: Есть
Cубтитры: Английские
Режиссёр: Кристиан Гьюдгэст
Сценарий: Кристиан Гьюдгэст, Пол Шойринг
Продюсер: Орен Авив, Джейсон Бархидт, Джерард Батлер
Оператор: Терри Стэйси
Композитор: Клифф Мартинес
Художник: Кара Линдстрём, Элизабет Боллер, Терри Андерсон
Монтаж: David Cox, Джоэл Кокс, Nathan Godley
В ролях: Джерард Батлер, Пабло Шрайбер, О’Ши Джексон мл., Фифти Сент, Медоу Уильямс, Морис Комт, Брайан Ван Холт, Ивэн Джонс, Мо, Каиви Лайман

Сборы в США: $44 947 622
Сборы в мире: + $29 900 000 = $74 847 622
Сборы в России: $1 340 251

Мировая премьера: 18 января 2018
Премьера (РФ): 8 февраля 2018, «MEGOGO Distribution»

Описание: Большой Ник — начальник элитного подразделения полиции Лос-Анджелеса — ежедневно доказывает, что его команда более крутая, чем те, на кого они охотятся. Когда коп узнает, что легендарный и неуловимый вор планирует дерзкое ограбление Федерального резервного банка США, то он решает помешать этому любым способом. И играть по правилам он не привык.
Качество исходника: WEB-DL 720p (NNMClub)
Качество: WEB-DL
Тип: HD (720p)
Контейнер: M4V
Видео: H.264, 1280x530, 2.40:1, 4 075 Kbps, 23.976 fps

Аудио 1: Русский/Дублированный (iTunes), AAC / 2.0 / {Bitrate} / 48.0 KHz
Аудио 2: Английский/Оригинальная дорожка , AAC / 2.0 / 160 Kbps / 48.0 KHz
Аудио 3: Русский/Дублированный (iTunes), AC-3 / 5.1 / 384 Kbps / 48.0 KHz
Аудио 4: Английский/Оригинальная дорожка , AC-3 / 5.1 / 384 Kbps / 48.0 KHz

Субтитры: Английские полные
Sort Name: Den of Thieves
XID: Apple:vendor_id:2017-916105
contentID: 1338032525
Copyright: © 2018 STX FINANCING, LLC. ALL RIGHTS RESERVED.
Screenwriters: Кристиан Гьюдгэст, Пол Шойринг
Producers: Орен Авив, Джейсон Бархидт, Джерард Батлер
Director: Кристиан Гьюдгэст
Cast: Джерард Батлер, Джордан Бриджес, Пабло Шрайбер, Ивэн Джонс, О`Ши Джексон мл., 50 Cent, Соня Балморес, Эрик Браден, Брайан Ван Холт, Морис Комт
Studio: STX Entertainment
Rating: 5
Long Description: Большой Ник — начальник элитного подразделения полиции Лос-Анджелеса — ежедневно доказывает, что его команда более крутая, чем те, на кого они охотятся. Когда коп узнает, что легендарный и неуловимый вор планирует дерзкое ограбление Федерального резервного банка США, то он решает помешать этому любым способом. И играть по правилам он не привык.
Description: Большой Ник — начальник элитного подразделения полиции Лос-Анджелеса — ежедневно доказывает, что его команда более крутая, чем те, на кого они охотятся.
Release Date: 2018-01-19T08:00:00Z
Genre: Action & Adventure
Artist: Christian Gudegast
Name: Den of Thieves
General
Complete name : /Users/imac/HandBrake/Den.of.Thieves.WEB-DL.720p.m4v
Format : MPEG-4
Codec ID : M4V
File size : 5.04 GiB
Duration : 2h 20mn
Overall bit rate mode : Variable
Overall bit rate : 5 158 Kbps
Movie name : Den of Thieves
Performer : Christian Gudegast
Director : Кристиан Гьюдгэст
Actor : Джерард Батлер / Джордан Бриджес / Пабло Шрайбер / Ивэн Джонс / О`Ши Джексон мл. / 50 Cent / Соня Балморес / Эрик Браден / Брайан Ван Холт / Морис Комт
Screenplay by : Кристиан Гьюдгэст / Пол Шойринг
Producer : Орен Авив / Джейсон Бархидт / Джерард Батлер
Production studio : STX Entertainment
Genre : Action & Adventure
ContentType : Short Film
Description : Большой Ник — начальник элитного подразделения полиции Лос-Анджелеса — ежедневно доказывает, что его команда более крутая, чем те, на кого они охотятся.
Recorded date : UTC 2018-01-19 08:00:00
Encoded date : UTC 2018-04-13 22:30:58
Tagged date : UTC 2018-04-14 10:46:06
Copyright : © 2018 STX FINANCING, LLC. ALL RIGHTS RESERVED.
Cover : Yes
Rating : None
Title/Sort : Den of Thieves
LongDescription : Большой Ник — начальник элитного подразделения полиции Лос-Анджелеса — ежедневно доказывает, что его команда более крутая, чем те, на кого они охотятся. Когда коп узнает, что легендарный и неуловимый вор планирует дерзкое ограбление Федерального резервного банка США, то он решает помешать этому любым способом. И играть по правилам он не привык.
HDVideo : Yes
AppleStoreCatalogID : 1338032525
Vendor : Apple:vendor_id:2017-916105
ContentRating : mpaa|R|400|

Video #1
ID : 1
Format : AVC
Format/Info : Advanced Video Codec
Format profile : [email protected]
Format settings, CABAC : No
Format settings, ReFrames : 2 frames
Codec ID : avc1
Codec ID/Info : Advanced Video Coding
Duration : 2h 20mn
Bit rate : 4 075 Kbps
Width : 1 280 pixels
Height : 530 pixels
Display aspect ratio : 2.40:1
Frame rate mode : Variable
Frame rate : 23.976 fps
Minimum frame rate : 23.810 fps
Maximum frame rate : 24.390 fps
Color space : YUV
Chroma subsampling : 4:2:0
Bit depth : 8 bits
Scan type : Progressive
Bits/(Pixel*Frame) : 0.251
Stream size : 3.99 GiB (79%)
Title : Main Program
Language : English
Encoded date : UTC 2018-04-13 22:30:58
Tagged date : UTC 2018-04-13 22:33:11
Color range : Limited
Color primaries : BT.709
Transfer characteristics : BT.709
Matrix coefficients : BT.709

Video #2
ID : 8
Format : JPEG
Codec ID : jpeg
Duration : 2h 20mn
Bit rate mode : Variable
Bit rate : 660 bps
Width : 640 pixels
Height : 265 pixels
Display aspect ratio : 2.40:1
Frame rate mode : Variable
Frame rate : 0.002 fps
Minimum frame rate : 0.001 fps
Maximum frame rate : 0.003 fps
Color space : YUV
Chroma subsampling : 4:2:0
Bit depth : 8 bits
Compression mode : Lossy
Bits/(Pixel*Frame) : 1.946
Stream size : 524 KiB (0%)
Title : Chapter Images
Language : English
Encoded date : UTC 2018-04-13 22:33:15
Tagged date : UTC 2018-04-13 22:33:15

Audio #1
ID : 2
Format : AAC
Format/Info : Advanced Audio Codec
Format profile : LC
Codec ID : 40
Duration : 2h 20mn
Source duration : 2h 20mn
Bit rate mode : Variable
Nominal bit rate : 154 Kbps
Maximum bit rate : 259 Kbps
Channel(s) : 2 channels
Channel positions : Front: L R
Sampling rate : 48.0 KHz
Compression mode : Lossy
Source stream size : 154 MiB (3%)
Title : Russian Stereo
Language : Russian
Encoded date : UTC 2018-04-13 22:30:58
Tagged date : UTC 2018-04-13 22:31:13

Audio #2
ID : 3
Format : AAC
Format/Info : Advanced Audio Codec
Format profile : LC
Codec ID : 40
Duration : 2h 20mn
Source duration : 2h 20mn
Bit rate mode : Variable
Bit rate : 151 Kbps
Maximum bit rate : 259 Kbps
Channel(s) : 2 channels
Channel positions : Front: L R
Sampling rate : 48.0 KHz
Compression mode : Lossy
Stream size : 151 MiB (3%)
Source stream size : 151 MiB (3%)
Title : English Stereo
Language : English
Encoded date : UTC 2018-04-13 22:30:58
Tagged date : UTC 2018-04-13 22:31:13

Audio #3
ID : 4
Format : AC-3
Format/Info : Audio Coding 3
Mode extension : CM (complete main)
Format settings, Endianness : Big
Codec ID : ac-3
Duration : 2h 20mn
Bit rate mode : Constant
Bit rate : 384 Kbps
Channel(s) : 6 channels
Channel positions : Front: L C R, Side: L R, LFE
Sampling rate : 48.0 KHz
Bit depth : 16 bits
Compression mode : Lossy
Stream size : 385 MiB (7%)
Title : Russian DD 5.1
Language : Russian
Encoded date : UTC 2018-04-13 22:30:58
Tagged date : UTC 2018-04-13 22:33:11

Audio #4
ID : 5
Format : AC-3
Format/Info : Audio Coding 3
Mode extension : CM (complete main)
Format settings, Endianness : Big
Codec ID : ac-3
Duration : 2h 20mn
Bit rate mode : Constant
Bit rate : 384 Kbps
Channel(s) : 6 channels
Channel positions : Front: L C R, Side: L R, LFE
Sampling rate : 48.0 KHz
Bit depth : 16 bits
Compression mode : Lossy
Stream size : 385 MiB (7%)
Title : English DD 5.1
Language : English
Encoded date : UTC 2018-04-13 22:30:58
Tagged date : UTC 2018-04-13 22:33:11

Text
ID : 6
Format : Timed Text
Muxing mode : sbtl
Codec ID : tx3g
Duration : 2h 13mn
Bit rate mode : Variable
Bit rate : 51 bps
Stream size : 49.7 KiB (0%)
Title : English full
Language : English
Encoded date : UTC 2018-04-13 22:30:58
Tagged date : UTC 2018-04-13 22:33:11

Menu #1
00:00:00.000 : 1
00:09:15.000 : 2
00:18:58.000 : 3
00:31:49.000 : 4
00:38:14.000 : 5
00:48:11.000 : 6
00:58:05.000 : 7
01:08:43.000 : 8
01:16:24.000 : 9
01:26:19.000 : 10
01:41:35.000 : 11
01:49:43.000 : 12
02:08:22.000 : 13

Menu #2
ID : 7
Codec ID : text
Duration : 2h 20mn
Language : English
Encoded date : UTC 2018-04-13 22:33:11
Tagged date : UTC 2018-04-13 22:33:11
00:00:00.000 : 1
00:09:15.000 : 2
00:18:58.000 : 3
00:31:49.000 : 4
00:38:14.000 : 5
00:48:11.000 : 6
00:58:05.000 : 7
01:08:43.000 : 8
01:16:24.000 : 9
01:26:19.000 : 10
01:41:35.000 : 11
01:49:43.000 : 12
02:08:22.000 : 13
Bit rate mode : VBR

Релиз подготовлен для просмотра на Apple TV, iPad, iPhone, iPod Touch.
Для просмотра данного релиза на компьютере с ОС Windows рекомендуется использовать VLC media player

Трекер:  [ 14-Апр-2018 14:06 ]

  

Скачать .torrent

Размер .torrent файла 51 KB


Размер: 5.04 GB
Хэш (hash) релиза: 65aa6e399d0859feb227fc375fdf4d47b9819daf

Торренты, похожие на Охота на воров Den of Thieves скачать торрент

Форум Название Автор Размер S L Добавлен
Видео (iPhone/iPod Touch/iPad) ·· Охота на воров / Den of Thieves (Кристиан Гьюдгэст / Christian Gudegast ) [2018, США, Боевик, триллер, драма, криминал, детектив, WEB-DLRip, SD (480p)] DUB + Original + sub (eng) Galfimbul 16326696981.52 GB 0 0 1523804780

18:06

15-Апр-18

Видео (iPhone/iPod Touch/iPad) ·· [iPad] Охота на воров / Den of Thieves (Кристиан Гьюдгэст / Christian Gudegast ) [2018, США, Боевик, триллер, драма, криминал, детектив, WEB-DLRip, SD (576p)] DUB + Original + sub (eng) Galfimbul 25789015732.4 GB 0 0 1523802974

17:36

15-Апр-18

Видео (iPhone/iPod Touch/iPad) ·· [ATV3] Охота на воров / Den of Thieves (Кристиан Гьюдгэст / Christian Gudegast ) [2018, США, Боевик, триллер, драма, криминал, детектив, WEB-DL, HD (1080p)] DUB + Original + sub (eng) Galfimbul 62217328615.79 GB 0 0 1523658980

01:36

14-Апр-18

Видео (iPhone/iPod Touch/iPad) ·· [ATV3] Охота на воров / Den of Thieves (Кристиан Гьюдгэст / Christian Gudegast ) [2018, США, Боевик, триллер, драма, криминал, детектив, WEB-DL, HD (1080p)] AMZN DUB + Original + sub (eng) Galfimbul 1084897801610.1 GB 0 0 1523615777

13:36

13-Апр-18

Еще никто не оставлял запись к записи скачать торрент Охота на воров Den of Thieves . Будь первым!

!Обратная связь