Chapter 110 | Broke From the Box | Weekly Idol Episode 335

Скачать через торрент Великий из бродячих псов 2 Bungou Stray Dogs 2nd Season бесплатно Аниме Все серии на русском torrent

Статистика раздачи
Размер:  12.68 GB   |    Зарегистрирован:  3 месяца 4 дня   |    .torrent скачан:  29 раз   |   
Раздают:  1  
   
загрузка...
 
Автор Сообщение

Galfimbul

avatar Galfimbul



Год выпуска: 2016
Страна: Япония
Жанр: мистика, детектив, cверхъестественное
Продолжительность: TV, 12 эп. по 25 мин.
Режиссер: Игараси Такуя
Студия: BONES
Выпуск: с 06.10.2016 по 16.12.2016
Описание:
Ацуши Накаджиму выставили из детдома, оставив без каких-либо шансов на выживание. И повезло же ему, умирающему от голода, наткнуться на причудливого суицидника. Этим парнем оказался Осаму Дазай, состоящий вместе со своим напарником Доппо Куникидой в весьма необычном детективном агентстве. Все его члены — люди, обладающие сверхспособностями. Они работают с делами, слишком опасными как для полиции, так и для военных.
В момент, когда Ацуши прибыл в город, Осаму и Доппо выслеживали недавно объявившегося тигра. А когда дело было закрыто, стало ясно, что жизнь паренька будет крепко связана с Дазаем и остальными детективами.© Aiuna .
Информационные ссылки: AniDB || World Art || MAL
Качество: BDRip
Автор рипа: VCB-Studio
Тип релиза: Без хардсаба; без линковки; с главами
Формат видео: MKV
Видео: HEVC(х265); 10 bit; 1920x1080; ~5700 Кбит/сек; 23.976 кадра/сек
Аудио JAP: FLAC; 48kHz; 2 канала; ~700 Кбит/сек
Аудио RUS (ext): AC3; 48kHz; 2ch; 192 Кбит/сек; озвучено: Студийная Банда & AniDUB
Аудио RUS (ext): многоголосая: Татьяна Борзова & Ирина Зиновкина & Сергей Кубасян & Полина Ртищева & Александр Русаков &
Аудио RUS (ext): многоголосая: Влад Токарев & Давид Петросян & Томас Шлеккер & Александр Коротков (JAM)
Субтитры RUS: ASS; внешние; полные+надписи; перевод: YakuSub Studio
Субтитры RUS: переводчик/перевод песен/оформление: Nika_Elrik, редактор: Red-blue_heart
Субтитры RUS: правка тайминга под Blu-Ray: Horodep
01. The Dark Age
02. Nowhere to Return
03. Some Day in a Room with a Seaside View
04. Bungo Stray Dogs
05. Three Companies Conflict
06. The Strategy of Conflict
07. Will of Tycoon
08. Though the Mind May Be Wrong
09. Double Black
10. Poe and Rampo / The Whereabouts of the Skyfaring Moby Dick
11. Rashoumon, the Tiger, and the Last Emperor
12. If I May Shed Away My Burden Now
MERDOK - BDRip, 1080p, другая озвучкаMilirina - BDRip, 1080p, другая озвучка

GeneralUnique ID : 235808254393825319105034242950492716231 (0xB167049050B09B6C4D31D1FFC691FCC7)Complete name : \Bungou Stray Dogs 2 [BDRip 1080p HEVC FLAC]\[VCB-Studio] Bungo Stray Dogs [16][Ma10p_1080p][x265_flac].mkvFormat : MatroskaFormat version : Version 4 / Version 2File size : 983 MiBDuration : 24 min 11 sOverall bit rate mode : VariableOverall bit rate : 5 684 kb/sEncoded date : UTC 2018-03-02 12:10:04Writing application : mkvmerge v20.0.0 ('I Am The Sun') 64-bitWriting library : libebml v1.3.5 + libmatroska v1.4.8

VideoID : 1Format : HEVCFormat/Info : High Efficiency Video CodingFormat profile : Main [email protected]@HighCodec ID : V_MPEGH/ISO/HEVCDuration : 24 min 11 sBit rate : 5 015 kb/sWidth : 1 920 pixelsHeight : 1 080 pixelsDisplay aspect ratio : 16:9Frame rate mode : ConstantFrame rate : 23.976 (24000/1001) FPSColor space : YUVChroma subsampling : 4:2:0Bit depth : 10 bitsBits/(Pixel*Frame) : 0.101Stream size : 868 MiB (88%)Writing library : x265 2.6+8-68b17aa887aa:[Windows][MSVC 1900][64 bit] 10bitEncoding settings : cpuid=1173503 / frame-threads=5 / numa-pools=36 / wpp / no-pmode / no-pme / no-psnr / no-ssim / log-level=2 / input-csp=1 / input-res=1920x1080 / interlace=0 / total-frames=0 / level-idc=0 / high-tier=1 / uhd-bd=0 / ref=4 / no-allow-non-conformance / no-repeat-headers / annexb / no-aud / no-hrd / info / hash=0 / no-temporal-layers / no-open-gop / min-keyint=1 / keyint=360 / bframes=6 / b-adapt=2 / b-pyramid / bframe-bias=0 / rc-lookahead=80 / lookahead-slices=4 / scenecut=40 / no-intra-refresh / ctu=32 / min-cu-size=8 / no-rect / no-amp / max-tu-size=32 / tu-inter-depth=2 / tu-intra-depth=2 / limit-tu=4 / rdoq-level=2 / dynamic-rd=0.00 / no-ssim-rd / signhide / no-tskip / nr-intra=0 / nr-inter=0 / no-constrained-intra / no-strong-intra-smoothing / max-merge=3 / limit-refs=2 / limit-modes / me=3 / subme=3 / merange=44 / temporal-mvp / weightp / weightb / no-analyze-src-pics / deblock=-1:-1 / no-sao / no-sao-non-deblock / rd=5 / no-early-skip / rskip / no-fast-intra / no-tskip-fast / no-cu-lossless / b-intra / no-splitrd-skip / rdpenalty=0 / psy-rd=1.50 / psy-rdoq=1.50 / no-rd-refine / analysis-reuse-mode=0 / no-lossless / cbqpoffs=-3 / crqpoffs=-3 / rc=crf / crf=18.5 / qcomp=0.65 / qpstep=4 / stats-write=0 / stats-read=0 / vbv-maxrate=35000 / vbv-bufsize=40000 / vbv-init=0.9 / crf-max=0.0 / crf-min=0.0 / ipratio=1.40 / pbratio=1.20 / aq-mode=2 / aq-strength=0.90 / cutree / zone-count=0 / no-strict-cbr / qg-size=16 / no-rc-grain / qpmax=69 / qpmin=0 / no-const-vbv / sar=0 / overscan=0 / videoformat=5 / range=0 / colorprim=2 / transfer=2 / colormatrix=1 / chromaloc=0 / display-window=0 / max-cll=0,0 / min-luma=0 / max-luma=1023 / log2-max-poc-lsb=8 / vui-timing-info / vui-hrd-info / slices=1 / no-opt-qp-pps / no-opt-ref-list-length-pps / no-multi-pass-opt-rps / scenecut-bias=0.05 / no-opt-cu-delta-qp / no-aq-motion / no-hdr / no-hdr-opt / no-dhdr10-opt / analysis-reuse-level=5 / scale-factor=0 / refine-intra=0 / refine-inter=0 / refine-mv=0 / no-limit-sao / ctu-info=0 / no-lowpass-dct / refine-mv-type=0 / copy-pic=1Default : YesForced : NoColor range : LimitedMatrix coefficients : BT.709

AudioID : 2Format : FLACFormat/Info : Free Lossless Audio CodecCodec ID : A_FLACDuration : 24 min 11 sBit rate mode : VariableBit rate : 667 kb/sChannel(s) : 2 channelsChannel positions : Front: L RSampling rate : 48.0 kHzFrame rate : 11.719 FPS (4096 SPF)Bit depth : 16 bitsStream size : 115 MiB (12%)Writing library : libFLAC 1.2.1 (UTC 2007-09-17)Language : JapaneseDefault : YesForced : No

Menu00:00:00.000 : en:Chapter 0100:13:13.001 : en:Chapter 0200:23:40.002 : en:Chapter 03

Выбор видео, перевода, осуществляется релизером и не подлежит обсуждению. Если вы считаете, что раздаваемый материал противоречит правилам раздела "Аниме" rutracker.org, сообщите об этом одному из модераторов раздела.
Данный релиз предназначен для просмотра на ПК. Воспроизведение на иных проигрывателях не гарантируется.
Однако, современные телевизоры и железные плееры с поддержкой 10bit HEVC должны воспроизвести релиз.
Данный релиз содержит 10-битное видео (Hi10p). Для корректного воспроизведения обязательно используйте кодеки, поддерживающие 10-битное видео.
Обсудить проблемы с воспроизведением и получить дополнительную информацию можно здесь.
Данный релиз предназначен для просмотра с внешними субтитрами и внешними звуковыми дорожками.

Для просмотра с субтитрами нужно:

установить шрифты из папки "RUS Subs » Fonts";
скопировать файлы .ass из папки "RUS Subs" в одну папку с видео - плеер подгрузит их автоматически при открытии видео.

Для просмотра с внешней звуковой дорожкой нужно:

скопировать файлы .mka из папки "RUS Sound" в одну папку с видео и переключить звуковую дорожку в плеере при просмотре.
Как это сделать в разных плеерах подробно описано здесь;
установить шрифты из папки "RUS Subs » Fonts";
скопировать файлы .ass из папки "RUS Subs » Надписи" в одну папку с видео - плеер подгрузит их автоматически при открытии видео.

Если у вас возникли проблемы с просмотром, не связанные с описанным выше, сообщите о них автору раздачи посредством сообщения в теме или ЛС Horodep.


Трекер:  [ 14-Апр-2018 13:30 ]

  

Скачать .torrent

Размер .torrent файла 69 KB


Размер: 12.68 GB
Хэш (hash) релиза: 404f72bbb3a1840ef559a8103d34d9b43ea74ac8
Подписка на обновления:

Еще никто не оставлял запись к записи скачать торрент Великий из бродячих псов 2 Bungou Stray Dogs 2nd Season . Будь первым!

!Обратная связь