Chap 21.2
Green Room - 今日VIPGreen Room

Скачать через торрент Великий из бродячих псов Bungou Stray Dogs: Hitori Ayumu бесплатно Аниме Все серии на русском torrent

Статистика раздачи
Размер:  1.92 GB   |    Зарегистрирован:  12 дней   |    .torrent скачан:  23 раза   |   
Раздают:  1  
   
загрузка...
 
Автор Сообщение

Galfimbul

avatar Galfimbul



Год выпуска: 2017
Страна: Япония
Жанр: мистика, детектив, cверхъестественное
Продолжительность: OVA, 1 эп., 25 мин.
Режиссер: Игараси Такуя
Студия: BONES
Дата издания: 04.08.2017
Описание:
Бонус к эксклюзивному ограниченному изданию тринадцатого тома манги.

Куникида собирается провести ИДЕАЛЬНО спланированный день по ИДЕАЛЬНОМУ плану.
Что же может пойти не так?© Horodep .
Информационные ссылки: AniDB || World Art || MAL
Качество: BDRip
Автор рипа: Horodep & Jensen [Beatrice-Raws]
Тип релиза: Без хардсаба; без линковки; с главами
Формат видео: MKV
Видео: MPEG4(х264); 10 bit; 1920x1080; 10.6 Мбит/сек; 23.976 кадра/сек
Аудио JAP: FLAC; 48kHz; 2 канала; 720 Кбит/сек
Аудио RUS (ext): AC3; 48kHz; 2ch; 192 Кбит/сек; озвучено: SHIZA
Аудио RUS (ext): трехголосая: Mamoru & Yupi & Lianna
Субтитры RUS: ASS; внешние; перевод: YakuSub Studio
Субтитры RUS: переводчик/перевод песен/оформление: Nika_Elrik, редактор: Red-blue_heart
Субтитры RUS: правка тайминга под Blu-Ray: Horodep
Субтитры ENG: ASS; внешние; перевод: Aniplus
01. Hitori Ayumu
Horodep - наличие озвучки

GeneralUnique ID : 176021142993901719347098625247628454666 (0x846C7063340BB32DA9B38EBD17B36B0A)Complete name : \Bungou Stray Dogs - 25 OVA [BDRip 1080p x264 FLAC]\[Beatrice-Raws] Bungou Stray Dogs - 25 OVA [BDRip 1920x1080 x264 FLAC].mkvFormat : MatroskaFormat version : Version 4 / Version 2File size : 1.88 GiBDuration : 23 min 48 sOverall bit rate mode : VariableOverall bit rate : 11.3 Mb/sEncoded date : UTC 2017-12-24 07:13:34Writing application : mkvmerge v13.0.0 ('The Juggler') 64bitWriting library : libebml v1.3.4 + libmatroska v1.4.5

VideoID : 1Format : AVCFormat/Info : Advanced Video CodecFormat profile : High [email protected] settings, CABAC : YesFormat settings, RefFrames : 4 framesCodec ID : V_MPEG4/ISO/AVCDuration : 23 min 48 sBit rate : 10.6 Mb/sWidth : 1 920 pixelsHeight : 1 080 pixelsDisplay aspect ratio : 16:9Frame rate mode : ConstantFrame rate : 23.976 (24000/1001) FPSColor space : YUVChroma subsampling : 4:2:0Bit depth : 10 bitsScan type : ProgressiveBits/(Pixel*Frame) : 0.214Stream size : 1.76 GiB (94%)Title : BDRip by Horodep & JensenWriting library : x264 core 152 r2851 ba24899 (DJATOM's build)Encoding settings : cabac=1 / ref=4 / deblock=1:1:-1 / analyse=0x3:0x113 / me=umh / subme=9 / psy=1 / psy_rd=1.00:0.00 / mixed_ref=1 / me_range=32 / chroma_me=1 / trellis=2 / 8x8dct=1 / cqm=0 / deadzone=21,11 / fast_pskip=1 / chroma_qp_offset=-2 / threads=12 / lookahead_threads=2 / sliced_threads=0 / nr=0 / decimate=1 / interlaced=0 / bluray_compat=0 / constrained_intra=0 / bframes=9 / b_pyramid=2 / b_adapt=2 / b_bias=0 / direct=1 / weightb=1 / open_gop=0 / weightp=2 / keyint=240 / keyint_min=23 / scenecut=40 / intra_refresh=0 / rc=crf / mbtree=0 / crf=16.0000 / qcomp=0.72 / qpmin=0 / qpmax=81 / qpstep=4 / ip_ratio=1.40 / pb_ratio=1.30 / aq=1:0.85Language : JapaneseDefault : YesForced : NoColor range : LimitedColor primaries : BT.709Transfer characteristics : BT.709Matrix coefficients : BT.709

AudioID : 2Format : FLACFormat/Info : Free Lossless Audio CodecCodec ID : A_FLACDuration : 23 min 48 sBit rate mode : VariableBit rate : 720 kb/sChannel(s) : 2 channelsChannel positions : Front: L RSampling rate : 48.0 kHzFrame rate : 11.719 FPS (4096 SPF)Bit depth : 16 bitsStream size : 123 MiB (6%)Writing library : libFLAC 1.3.2 (UTC 2017-01-01)Language : JapaneseDefault : YesForced : No

Menu00:00:00.000 : en:Avant00:02:32.819 : en:OP00:04:02.367 : en:Part A00:12:43.012 : en:Part B00:22:17.044 : en:ED

Выбор видео, перевода, осуществляется релизером и не подлежит обсуждению. Если вы считаете, что раздаваемый материал противоречит правилам раздела "Аниме" rutracker.org, сообщите об этом одному из модераторов раздела.
Данный релиз предназначен для просмотра на ПК. Воспроизведение на иных проигрывателях не гарантируется.
Данный релиз содержит 10-битное видео (Hi10p). Для корректного воспроизведения обязательно используйте кодеки, поддерживающие 10-битное видео.
Обсудить проблемы с воспроизведением и получить дополнительную информацию можно здесь.
Данный релиз предназначен для просмотра с внешними субтитрами и внешними звуковыми дорожками.

Для просмотра с субтитрами нужно:

установить шрифты из папки "RUS Subs » Fonts";
скопировать файлы .ass из папки "RUS Subs" в одну папку с видео - плеер подгрузит их автоматически при открытии видео.

Для просмотра с внешней звуковой дорожкой нужно:

скопировать файлы .mka из папки "RUS Sound" в одну папку с видео и переключить звуковую дорожку в плеере при просмотре.
Как это сделать в разных плеерах подробно описано здесь;
установить шрифты из папки "RUS Subs » Fonts";
скопировать файлы .ass из папки "RUS Subs » Надписи" в одну папку с видео - плеер подгрузит их автоматически при открытии видео.

Если у вас возникли проблемы с просмотром, не связанные с описанным выше, сообщите о них автору раздачи посредством сообщения в теме или ЛС Horodep.


Трекер:  [ 14-Апр-2018 13:30 ]

  

Скачать .torrent

Размер .torrent файла 20 KB


Размер: 1.92 GB
Хэш (hash) релиза: c4f79c0077bd8c64e4dfcf79b6072f48c4e293df
Подписка на обновления:

Торренты, похожие на Великий из бродячих псов Bungou Stray Dogs: Hitori Ayumu скачать торрент

Форум Название Автор Размер S L Добавлен
Аниме | HD Rips ·· Великий из бродячих псов / Bungou Stray Dogs: Hitori Ayumu / Bungo Stray Dogs: He Walks Alone [OVA] [1 из 1] [без хардсаба] [JAP+SUB] [2016, мистика, детектив, cверхъестественное, BDRip] [1080p] Galfimbul 20263416971.89 GB 0 0 1514149352

00:02

25-Дек-17

Еще никто не оставлял запись к записи скачать торрент Великий из бродячих псов Bungou Stray Dogs: Hitori Ayumu . Будь первым!

!Обратная связь