Download | HD Captain Underpants: The First Epic Movie (2017) | The Peanuts Movie 2015

Скачать через торрент Великий из бродячих псов Bungou Stray Dogs бесплатно Аниме Все серии на русском torrent

Статистика раздачи
Размер:  13.79 GB   |    Зарегистрирован:  1 месяц 12 дней   |    .torrent скачан:  19 раз   |   
Раздают:  1  
   
загрузка...
 
Автор Сообщение

Galfimbul

avatar Galfimbul



Год выпуска: 2016
Страна: Япония
Жанр: мистика, детектив, cверхъестественное
Продолжительность: TV, 12 эп. по 25 мин.
Режиссер: Игараси Такуя
Студия: BONES
Выпуск: с 27.03.2016 по 23.06.2016
Описание:
Ацуши Накаджиму размашистым пинком выставили из сиротского приюта. Потерявший крышу над головой и обессилевший от голода, юноша, однако, не утратил волю к жизни и даже нашел в себе силы подняться из положения «лежа». В порыве безудержного гнева, вперемешку с горькой обидой, он решил, что единственный способ выжить — грабеж средь бела дня. На счастье, возле реки, где пару минут назад Ацуши готов был отдать концы, пролегала дорога. Осталось только затаиться и ждать.
Плюх. Что это? Чьи-то ноги торчат из воды. Бульк. Режим «спасатель» активирован! И вот, мгновенно позабыв о грабеже уставших путников и караванов, Ацуши бросается в реку на выручку незадачливому «поплавку». Которым оказывается молодой человек, недовольный тем, что его причудливую попытку самоубийства сорвали.
Позже озадаченный Ацуши узнает, что имя утопленника — Осаму Дазай, и что он работает в специальном «Вооруженном детективном агентстве», штатные сыщики которого обладают сверхъестественными способностями. Когда полиция и военные бессильны — обращаются к ним.
В этот раз Осаму и его напарнику предстоит охота на опасного зверя, терроризирующего округу. И как-то так получилось, что именно этот зверь стал причиной изгнания Ацуши...© Joseph .
Информационные ссылки: AniDB || World Art || MAL
Качество: BDRip
Автор рипа: VCB-Studio
Тип релиза: Без хардсаба; без линковки; с глвами
Формат видео: MKV
Видео: HEVC(х265); 10 bit; 1920x1080; ~6200 Кбит/сек; 23.976 кадра/сек
Аудио JAP: FLAC; 48kHz; 2 канала; ~700 Кбит/сек
Аудио RUS (ext): AC3; 48kHz; 2ch; 192 Кбит/сек; озвучено: Студийная Банда & AniDUB
Аудио RUS (ext): многоголосая: Татьяна Борзова & Ирина Зиновкина & Сергей Кубасян & Полина Ртищева & Александр Русаков &
Аудио RUS (ext): многоголосая: Влад Токарев & Давид Петросян & Томас Шлеккер & Александр Коротков (JAM)
Субтитры RUS: ASS; внешние; полные+надписи; перевод: YakuSub Studio
Субтитры RUS: переводчик/перевод песен/оформление: Nika_Elrik, редактор: Red-blue_heart
Субтитры RUS: правка тайминга под Blu-Ray: Horodep
01. Fortune Is Unpredictable and Mutable
02. A Certain Bomb
03. Yokohama Gangster Paradise
04. The Tragedy of the Fatalist
05. Murder on D Street
06. The Azure Messenger
07. Love for the Disease Called Ideals
08. Teaching Them To Kill; Then To Die
09. The Beauty Is Quiet Like a Stone Statue
10. Rashomon and the Tiger
11. First, an Unsuitable Profession for Her. Second, an Ecstatic Detective Agency
12. Borne Back Ceaselessly into the Past
fire0shadow - BDRipBananasichik - BDRip, 1080pMilirina - BDRip, 1080p, другая озвучкаHorodep - наличие озвучки

GeneralUnique ID : 181831249667422215767977799240354315818 (0x88CB6CC35C9CD17091337FB119F33E2A)Complete name : \Bungou Stray Dogs [BDRip 1080p HEVC FLAC]\[VCB-Studio] Bungo Stray Dogs [01][Ma10p_1080p][x265_flac].mkvFormat : MatroskaFormat version : Version 4 / Version 2File size : 1.19 GiBDuration : 23 min 42 sOverall bit rate mode : VariableOverall bit rate : 7 196 kb/sEncoded date : UTC 2017-01-16 16:31:58Writing application : mkvmerge v9.4.0 ('Knurl') 64bitWriting library : libebml v1.3.4 + libmatroska v1.4.5

VideoID : 1Format : HEVCFormat/Info : High Efficiency Video CodingFormat profile : Main [email protected]@HighCodec ID : V_MPEGH/ISO/HEVCDuration : 23 min 42 sBit rate : 6 481 kb/sWidth : 1 920 pixelsHeight : 1 080 pixelsDisplay aspect ratio : 16:9Frame rate mode : ConstantFrame rate : 23.976 (24000/1001) FPSColor space : YUVChroma subsampling : 4:2:0Bit depth : 10 bitsBits/(Pixel*Frame) : 0.130Stream size : 1.07 GiB (90%)Writing library : x265 2.0+2-6e301b63952b:[Windows][MSVC 1900][64 bit] 10bitEncoding settings : wpp / ctu=32 / min-cu-size=8 / max-tu-size=32 / tu-intra-depth=2 / tu-inter-depth=2 / me=3 / subme=3 / merange=44 / no-rect / no-amp / max-merge=3 / temporal-mvp / no-early-skip / rskip / rdpenalty=0 / no-tskip / no-tskip-fast / no-strong-intra-smoothing / no-lossless / no-cu-lossless / no-constrained-intra / no-fast-intra / no-open-gop / no-temporal-layers / interlace=0 / keyint=360 / min-keyint=1 / scenecut=40 / rc-lookahead=80 / lookahead-slices=4 / bframes=6 / bframe-bias=0 / b-adapt=2 / ref=4 / limit-refs=2 / limit-modes / weightp / weightb / aq-mode=1 / qg-size=32 / aq-strength=0.90 / cbqpoffs=-3 / crqpoffs=-3 / rd=4 / psy-rd=2.00 / rdoq-level=2 / psy-rdoq=3.00 / no-rd-refine / signhide / deblock=-1:-1 / no-sao / no-sao-non-deblock / b-pyramid / cutree / no-intra-refresh / rc=crf / crf=16.0 / qcomp=0.65 / qpmin=0 / qpmax=51 / qpstep=4 / vbv-maxrate=30000 / vbv-bufsize=34000 / crf-max=0.0 / ipratio=1.40 / pbratio=1.20Default : YesForced : NoColor range : LimitedMatrix coefficients : BT.709

AudioID : 2Format : FLACFormat/Info : Free Lossless Audio CodecCodec ID : A_FLACDuration : 23 min 42 sBit rate mode : VariableBit rate : 712 kb/sChannel(s) : 2 channelsChannel positions : Front: L RSampling rate : 48.0 kHzFrame rate : 11.719 FPS (4096 SPF)Bit depth : 16 bitsStream size : 121 MiB (10%)Writing library : libFLAC 1.3.1 (UTC 2014-11-25)Language : JapaneseDefault : YesForced : No

Menu00:00:00.000 : en:Chapter 0100:12:40.051 : en:Chapter 0200:20:11.544 : en:Chapter 0300:21:41.050 : en:Chapter 0400:22:11.455 : en:Chapter 05

Выбор видео, перевода, осуществляется релизером и не подлежит обсуждению. Если вы считаете, что раздаваемый материал противоречит правилам раздела "Аниме" rutracker.org, сообщите об этом одному из модераторов раздела.
Данный релиз предназначен для просмотра на ПК. Воспроизведение на иных проигрывателях не гарантируется.
Однако, современные телевизоры и железные плееры с поддержкой 10bit HEVC должны воспроизвести релиз.
Данный релиз содержит 10-битное видео (Hi10p). Для корректного воспроизведения обязательно используйте кодеки, поддерживающие 10-битное видео.
Обсудить проблемы с воспроизведением и получить дополнительную информацию можно здесь.
Данный релиз предназначен для просмотра с внешними субтитрами и внешними звуковыми дорожками.

Для просмотра с субтитрами нужно:

установить шрифты из папки "RUS Subs » Fonts";
скопировать файлы .ass из папки "RUS Subs" в одну папку с видео - плеер подгрузит их автоматически при открытии видео.

Для просмотра с внешней звуковой дорожкой нужно:

скопировать файлы .mka из папки "RUS Sound" в одну папку с видео и переключить звуковую дорожку в плеере при просмотре.
Как это сделать в разных плеерах подробно описано здесь;
установить шрифты из папки "RUS Subs » Fonts";
скопировать файлы .ass из папки "RUS Subs » Надписи" в одну папку с видео - плеер подгрузит их автоматически при открытии видео.

Если у вас возникли проблемы с просмотром, не связанные с описанным выше, сообщите о них автору раздачи посредством сообщения в теме или ЛС Horodep.


Трекер:  [ 14-Апр-2018 13:01 ]

  

Скачать .torrent

Размер .torrent файла 75 KB


Размер: 13.79 GB
Хэш (hash) релиза: dea47dd69e8911c1ca32a2c2f17102c85e6d3147
Подписка на обновления:

Торренты, похожие на Великий из бродячих псов Bungou Stray Dogs скачать торрент

Форум Название Автор Размер S L Добавлен
Аниме | Rips ·· Великий из бродячих псов / Bungou Stray Dogs: Hitori Ayumu / Bungo Stray Dogs: He Walks Alone [OVA] [1 из 1] [без хардсаба] [RUS(ext), JAP+SUB] [2017, мистика, детектив, cверхъестественное, BDRip] [1080p] Galfimbul 20607461971.92 GB 0 0 1523701807

13:30

14-Апр-18

Аниме | HD Rips ·· Великий из бродячих псов / Bungou Stray Dogs: Hitori Ayumu / Bungo Stray Dogs: He Walks Alone [OVA] [1 из 1] [без хардсаба] [JAP+SUB] [2016, мистика, детектив, cверхъестественное, BDRip] [1080p] Galfimbul 20263416971.89 GB 0 0 1514149352

00:02

25-Дек-17

Аниме | Rips ·· Великий из бродячих псов 2 / Bungou Stray Dogs 2nd Season / Bungo Stray Dogs 2 [TV] [12 из 12] [Без хардсаба] [RUS(ext), JAP+SUB] [2016, мистика, детектив, cверхъестественное, BDRip] [1080p] Galfimbul 1361690139112.68 GB 0 0 1523701815

13:30

14-Апр-18

Аниме | Rips ·· Великий из Бродячих Псов [ТВ-2] / Bungou Stray Dogs / Bungo Stray Dogs [TV] [1-6 из 12] [Без хардсаба] [RUS(int)] [2016, приключения, детектив, мистика, сёнэн, HDTVRip] [720p] Galfimbul 21538811212.01 GB 0 0 1479585234

22:53

19-Ноя-16

Аниме | Rips ·· Великий из Бродячих Псов [ТВ-2] / Bungou Stray Dogs / Bungo Stray Dogs [TV] [1-6 из 12] [Без хардсаба] [RUS(int)] [2016, приключения, детектив, мистика, сёнэн, HDTVRip] [720p] Galfimbul 20455606181.91 GB 0 0 1479561165

16:12

19-Ноя-16

Аниме | Rips ·· Великий из Бродячих Псов [ТВ-2] / Bungou Stray Dogs / Bungo Stray Dogs [TV] [1-4 из 12] [Без хардсаба] [RUS(int)] [2016, приключения, детектив, мистика, сёнэн, HDTVRip] [720p] Galfimbul 13666201731.27 GB 0 0 1478440532

16:55

6-Ноя-16

Аниме | Rips ·· Великий из Бродячих Псов [ТВ-2] / Bungou Stray Dogs / Bungo Stray Dogs [TV] [1-3 из 12] [Без хардсаба] [RUS(int)] [2016, приключения, детектив, мистика, сёнэн, HDTVRip] [720p] Galfimbul 1022624860975 MB 0 0 1477731926

12:05

29-Окт-16

Аниме | Rips ·· Великий из Бродячих Псов [ТВ-2] / Bungou Stray Dogs / Bungo Stray Dogs [TV] [1 из 12] [Без хардсаба] [RUS(int)] [2016 г., приключения, детектив, мистика, сёнэн, HDTVRip] [720p] Galfimbul 340830053325 MB 0 0 1476227122

02:05

12-Окт-16

Еще никто не оставлял запись к записи скачать торрент Великий из бродячих псов Bungou Stray Dogs . Будь первым!

!Обратная связь