DayZ: Standalone (2014) PC {Repack by R.G. Pirat's}
Smooth, Jazz-Pop (lossless)

Скачать через торрент Богатство Servet Фильм бесплатно в хорошем качестве torrent

Скачивайте на UnionPeer.org фильмы через торрент без регистрации. Новинки кино в хорошем качестве через торрент. На UnionPeer.org можно скачать через торрент фильмы 2014 и 2015 годов. Самые новые фильмы.

Скачать торрент Богатство Servet бесплатно через .torrent фильм мультфильм сериал

Статистика раздачи
Размер:  3.53 GB   |    Зарегистрирован:  1 день 15 часов   |    .torrent скачан:  34 раза   |   
Раздают:  1  
   
загрузка...
 
Автор Сообщение

Galfimbul

avatar Galfimbul


Богатство / Servet

Год выпуска: 2018
Страна: Турция
Производство: Ortaks Yapım
Жанр: Драма
Серии (количество): 1 из ?
Продолжительность: 1 х ~ 2:21:00
Перевод: любительский двухголосый закадровый (Студия переводов ★ TURK STAR)
Субтитры: Отсутствуют

Режиссёр: Эмир Кхализаде / Emir Khalilzadeh
В ролях: Юсуф Чим, Бахар Шахин, Баран Бёлюкбаши, Джемре Гюмели, Али Сюрмели, Али Атакан Сонмез, Бекир Чичекдемир, Тюляй Гюнал, Канболат Гёркем Арслан, Алисия Капудаг, Барыш Ялчын, Бора Дженгиз, Эврен Дуйал.

Описание: Джан и Ферах молодые люди, родители которых погибли, они оба сироты. Но случается так, что Ферах росла в детдоме, не ведая о своих богатых родственниках. А Джан рос в богатстве именно в доме ее родственников, управляет огромным холдингом. Однажды Кудрет, дед Ферах, просит Джана найти ее внучку, он хочет поделиться с ней своим богатством. Джан, почитающий Кудрета, как родного отца, берется исполнить его просьбу. Однако он еще не знает, что не все члены семьи хотят делиться своим богатством с какой-то девчонкой. Преодолевая препятствия появившиеся на их пути Джан и Ферах незаметно для себя безумно влюбляются друг в друга…

Сэмпл: http://multi-up.com/1194912
Качество: WEB-DLRip
Формат: AVI
Видео кодек: XviD
Аудио кодек: MP3
Видео: 720x400 (1.80:1), 25 fps, XviD build 73 ~1703 kbps avg, 0.24 bit/pixel
Аудио: 44.100 kHz, MPEG Layer 3, 2 ch, ~191.71 kbps avg
Реклама: Отсутствует
Формат : AVI
Формат/Информация : Audio Video Interleave
Размер файла : 1,88 Гбайт
Продолжительность : 2 ч. 21 м.
Общий поток : 1905 Кбит/сек

Видео
Идентификатор : 0
Формат : MPEG-4 Visual
Профиль формата : [email protected]
Параметр BVOP формата : Нет
Параметр QPel формата : Нет
Параметр GMC формата : Без точки перехода
Параметр матрицы формата : Default (H.263)
Идентификатор кодека : XVID
Идентификатор кодека/Подсказка : XviD
Продолжительность : 2 ч. 21 м.
Битрейт : 1703 Кбит/сек
Ширина : 720 пикселей
Высота : 400 пикселей
Соотношение сторон : 16:9
Частота кадров : 25,000 кадров/сек
Цветовое пространство : YUV
Субдискретизация насыщенности : 4:2:0
Битовая глубина : 8 бит
Тип развёртки : Прогрессивная
Метод сжатия : С потерями
Бит/(Пиксели*Кадры) : 0.237
Размер потока : 1,68 Гбайт (89%)
Библиотека кодирования : XviD 73

Аудио
Идентификатор : 1
Формат : MPEG Audio
Версия формата : Version 1
Профиль формата : Layer 3
Режим : Joint stereo
Идентификатор кодека : 55
Идентификатор кодека/Подсказка : MP3
Продолжительность : 2 ч. 21 м.
Вид битрейта : Постоянный
Битрейт : 192 Кбит/сек
Каналы : 2 канала
Частота : 44,1 КГц
Метод сжатия : С потерями
Размер потока : 193 Мбайт (10%)
Выравнивание : Разделение по промежуткам
Продолжительность промежутка : 40 мс. (1,00 видеокадр)
Время предзагрузки промежутка : 500 мс.
Внимание! Раздача ведётся путём добавления новых серий; при каждом добавлении создётся новый торрент. Чтобы начать докачку новой серии, пользователям необходимо сделать следующее:

Остановить скачивание.
Удалить старый торрент у себя из клиента (старые серии удалять не надо).
Скачать новый торрент и запустить его у себя в клиенте вместо старого, при этом указать клиенту путь в старую папку куда и должно происходить скачивание новых серий.

Ваш клиент при этом должен произвести хеширование (проверку) старой папки (если не производит сам - помогите ему сделать это), и будет докачивать только те серии которых у вас ещё нет. Старые серии при этом не удаляются, а продолжают раздаваться!
Eсли вы уже удалили старые серии, то предотвратить повторную закачку старых серий можно, отжав галочку в соответсвующих местах при запуске нового торрента. По возможности, желательно не удалять старые серии как можно дольше чтобы релизёр не столько продолжал раздавать старые серии, а смог сконцентрироваться на новых.
Предыдущие и альтернативные раздачи

Трекер:  [ 21-Апр-2018 15:59 ]

  

Скачать .torrent

Размер .torrent файла 18 KB


Размер: 3.53 GB
Хэш (hash) релиза: f3d8dfde7beb4e0eeb3fd3800c702a0140754121
Подписка на обновления:

bot

Раздача обновлена!
Перекачайте торрент-файл.

Хотите добавить комментарий к записи скачать торрент Богатство Servet

!Обратная связь