호텔나우-국내 호텔,리조트,펜션 할인 예약 여행 어플 | Season 7 - Episode 5 s07e05 | HD Wish Upon (2017)

Скачать через торрент Пространство Экспансия Фильм бесплатно в хорошем качестве torrent

Скачивайте на UnionPeer.org фильмы через торрент без регистрации. Новинки кино в хорошем качестве через торрент. На UnionPeer.org можно скачать через торрент фильмы 2014 и 2015 годов. Самые новые фильмы.

Скачать торрент Пространство Экспансия бесплатно через .torrent фильм мультфильм сериал

Статистика раздачи
Размер:  19.89 GB   |    Зарегистрирован:  1 месяц 9 дней   |    .torrent скачан:  181 раз   |   
Раздают:  1  
   
загрузка...
 
Автор Сообщение

Galfimbul

avatar Galfimbul


Пространство / Экспансия / The Expanse / Сезон 3
Год выпуска: 2018
Страна: США, Канада
Жанр: фантастика, детектив
Продолжительность: 01:00:00

Перевод: Профессиональный закадровый перевод

Режиссёр: Джефф Вулнаф, Терри МакДонаф, Роберт Либерман
В ролях: Кэс Анвар, Уэс Чэтэм, Доминик Типпер, Стивен Стрейт, Шоре Агдашлу, Флоренс Ванида Фэйвр, Шон Дойл, Фрэнки Адамс, Томас Джейн, Чад Л. Коулмэн

Описание: "Экспансия" (англ. The Expanse) - американский фантастический телесериал, созданный Марком Фергусом и Хоуком Остби, премьерный показ которого состоялся в 2015 году на телеканале Syfy. Сериал "Экспансия" основан на одноимённой серии книг Даниэля Абрахама и Тая Френка, писавших под псевдонимом Джеймс Кори


Качество: WEB-DL 1080p (AMAZON)
Контейнер: MKV
Видео: H.264/AVC, 1920x1080p (1.78:1), 23.976 fps, ~6033 kbps, ~0.121 bit/pixel
Аудио №1: Русский E-AC3/DD+ 5.1, 48 kHz, 640 kbps - профессиональный закадровый перевод LostFilm
Аудио №2: Английский E-AC3/DD+ 5.1, 48 kHz, 640 kbps
Субтитры: Английские, Английские (SDH)
Реклама: отсутствует
General
Unique ID                                : 162326845425173321974042489432705819270 (0x7A1F0363949381AEA7603F51313B6286)
Complete name                            : The.Expanse.2015.S03.1080p.AMZN.WEB-DL\The.Expanse.S03E01.1080p.AMZN.WEB-DL.H264.RUS.mkv
Format                                   : Matroska
Format version                           : Version 4 / Version 2
File size                                : 2.23 GiB
Duration                                 : 43 min 37 s
Overall bit rate mode                    : Variable
Overall bit rate                         : 7 316 kb/s
Movie name                               : The Expanse, Season 3 / Fight or Flight
Track name/Position                      : 1
Track name/Total                         : 13
Description                              : The Rocinante crew deals with the fallout over Naomi's betrayal while caught in the middle of the war between Earth and Mars. Avasarala and Bobbie hatch an escape plan.
Released date                            : 2018-04-12
Encoded date                             : UTC 2018-04-14 03:41:50
Writing application                      : mkvmerge v22.0.0 ('At The End Of The World') 64-bit
Writing library                          : libebml v1.3.5 + libmatroska v1.4.8

Video
ID                                       : 1
Format                                   : AVC
Format/Info                              : Advanced Video Codec
Format profile                           : [email protected]
Format settings                          : CABAC / 4 Ref Frames
Format settings, CABAC                   : Yes
Format settings, RefFrames               : 4 frames
Codec ID                                 : V_MPEG4/ISO/AVC
Duration                                 : 43 min 37 s
Bit rate mode                            : Variable
Bit rate                                 : 6 033 kb/s
Maximum bit rate                         : 15.0 Mb/s
Width                                    : 1 920 pixels
Height                                   : 1 080 pixels
Display aspect ratio                     : 16:9
Frame rate mode                          : Constant
Frame rate                               : 23.976 (24000/1001) FPS
Color space                              : YUV
Chroma subsampling                       : 4:2:0
Bit depth                                : 8 bits
Scan type                                : Progressive
Bits/(Pixel*Frame)                       : 0.121
Stream size                              : 1.84 GiB (82%)
Language                                 : English
Default                                  : Yes
Forced                                   : No
Color range                              : Limited
Color primaries                          : BT.709
Transfer characteristics                 : BT.709
Matrix coefficients                      : BT.709

Audio #1
ID                                       : 2
Format                                   : E-AC-3
Format/Info                              : Enhanced Audio Coding 3
Format settings, Endianness              : Big
Codec ID                                 : A_EAC3
Duration                                 : 43 min 37 s
Bit rate mode                            : Constant
Bit rate                                 : 640 kb/s
Channel(s)                               : 6 channels
Channel positions                        : Front: L C R, Side: L R, LFE
Sampling rate                            : 48.0 kHz
Frame rate                               : 187.500 FPS (256 SPF)
Compression mode                         : Lossy
Stream size                              : 200 MiB (9%)
Title                                    : LostFilm
Language                                 : Russian
Service kind                             : Complete Main
Default                                  : Yes
Forced                                   : No

Audio #2
ID                                       : 3
Format                                   : E-AC-3
Format/Info                              : Enhanced Audio Coding 3
Format settings, Endianness              : Big
Codec ID                                 : A_EAC3
Duration                                 : 43 min 37 s
Bit rate mode                            : Constant
Bit rate                                 : 640 kb/s
Channel(s)                               : 6 channels
Channel positions                        : Front: L C R, Side: L R, LFE
Sampling rate                            : 48.0 kHz
Frame rate                               : 187.500 FPS (256 SPF)
Compression mode                         : Lossy
Stream size                              : 200 MiB (9%)
Language                                 : English
Service kind                             : Complete Main
Default                                  : No
Forced                                   : No

Text #1
ID                                       : 4
Format                                   : UTF-8
Codec ID                                 : S_TEXT/UTF8
Codec ID/Info                            : UTF-8 Plain Text
Duration                                 : 42 min 24 s
Bit rate                                 : 66 b/s
Count of elements                        : 724
Stream size                              : 20.8 KiB (0%)
Language                                 : English
Default                                  : No
Forced                                   : No

Text #2
ID                                       : 5
Format                                   : UTF-8
Codec ID                                 : S_TEXT/UTF8
Codec ID/Info                            : UTF-8 Plain Text
Duration                                 : 42 min 28 s
Bit rate                                 : 75 b/s
Count of elements                        : 866
Stream size                              : 23.4 KiB (0%)
Title                                    : SDH
Language                                 : English
Default                                  : No
Forced                                   : No
Когда раздача ведётся путём добавления новых серий, при каждом добавлении создётся новый торрент. Чтобы начать докачку новой серии, пользователям необходимо сделать следующее:
(1) остановить скачивание,
(2) удалить старый торрент у себя из клиента (старые серии удалять не надо),
(3) скачать новый торрент и запустить его у себя в клиенте вместо старого, при этом указать клиенту путь в старую папку, куда и должно происходить скачивание новых серий.
Ваш клиент при этом должен произвести хеширование (проверку) старой папки (если не производит сам - помогите ему сделать это), и будет докачивать только те серии, которых у вас ещё нет. Старые серии при этом не удаляются, а продолжают раздаваться!
Eсли вы уже удалили старые серии, то предотвратить повторную закачку старых серий можно, отжав галочку в соответсвующих местах при запуске нового торрента. По возможности, желательно не удалять старые серии как можно дольше, чтобы релизёр не столько продолжал раздавать старые серии, а смог сконцентрироваться на новых.


Трекер:  [ 11-Июн-2018 11:21 ]

  

Скачать .torrent

Размер .torrent файла 200 KB


Размер: 19.89 GB
Хэш (hash) релиза: 83b0278baf40a2b273e89adeee5d974cfe71705d
Подписка на обновления:

Торренты, похожие на Пространство Экспансия скачать торрент

Форум Название Автор Размер S L Добавлен
Зарубежные сериалы ·· Пространство / Экспансия / The Expanse / Сезон: 3 / Серии: 1-9 из 13 (Джефф Вулнаф, Терри МакДонаф, Роберт Либерман) [2018, США, Канада, фантастика, триллер, драма, детектив, WEB-DLRip] MVO (LostFilm) + Original + Subs (Rus, Eng) Galfimbul 81937440317.63 GB 0 0 1527760087

12:48

31-Май-18

Зарубежные сериалы ·· Пространство / Экспансия / The Expanse / Сезон: 3 / Серии: 1-9 (13) (Джефф Вулнаф, Терри МакДонаф, Роберт Либерман) [2018, США, фантастика, детектив, WEB-DL 720p] MVO (LostFilm) + Original + Sub (rus, eng) Galfimbul 102657532819.56 GB 0 0 1524905293

11:48

28-Апр-18

Зарубежные сериалы ·· Пространство / Экспансия / The Expanse / Сезон: 3 / Серии: 1-9 из 13 (Роберт Либерман) [2018, США, фантастика, триллер, драма, детектив, WEBRip] MVO (Baibako) + Original Galfimbul 82022318087.64 GB 0 0 1523697491

12:18

14-Апр-18

Зарубежные сериалы ·· Пространство / Экспансия / The Expanse / Сезон: 3 / Серии: 1-9 из 13 (Роберт Либерман, Терри МакДонаф, Джефф Вулнаф) [2018, США, Фантастика, триллер, драма, детектив, экранизация, WEBRip] DVO (Gears Media) + Original Galfimbul 50577744104.71 GB 0 0 1523652499

23:48

13-Апр-18

Зарубежные сериалы ·· Пространство / Экспансия / The Expanse / Сезон: 3 / Серии: 1-9 из 13 (Роберт Либерман, Терри МакДонаф) [2018, США, фантастика, детектив, WEBRip] MVO (LostFilm) + Original Galfimbul 52393472004.88 GB 0 0 1523652490

23:48

13-Апр-18

Зарубежные сериалы ·· Пространство / Экспансия / The Expanse / Сезон: 3 / Серии: 1-9 из 13 (Роберт Либерман, Терри МакДонаф, Джефф Вулнаф) [2018, США, Фантастика, триллер, драма, детектив, экранизация, WEBRip 720p] DVO (Gears Media) + Original Galfimbul 94499843978.8 GB 0 0 1523648894

22:48

13-Апр-18

Зарубежные сериалы ·· Пространство / Экспансия / The Expanse / Сезон: 3 / Серии: 1-9 из 13 (Роберт Либерман / Robert Lieberman) [2018, США, фантастика, детектив, WEB-DL 1080p] MVO (OmskBird) + Original Galfimbul 2016920974418.78 GB 0 0 1523609292

11:48

13-Апр-18

bot

Раздача обновлена!
Перекачайте торрент-файл.

bot

Раздача обновлена!
Перекачайте торрент-файл.

bot

Раздача обновлена!
Перекачайте торрент-файл.

bot

Раздача обновлена!
Перекачайте торрент-файл.

bot

Раздача обновлена!
Перекачайте торрент-файл.

bot

Раздача обновлена!
Перекачайте торрент-файл.

bot

Раздача обновлена!
Перекачайте торрент-файл.

bot

Раздача обновлена!
Перекачайте торрент-файл.

Хотите добавить комментарий к записи скачать торрент Пространство Экспансия

!Обратная связь