Supergirl (2015) | Добавить omuro.biz в поисковую строку | Health Sciences

Скачать через торрент Пространство Экспансия Фильм бесплатно в хорошем качестве torrent

Скачивайте на UnionPeer.org фильмы через торрент без регистрации. Новинки кино в хорошем качестве через торрент. На UnionPeer.org можно скачать через торрент фильмы 2014 и 2015 годов. Самые новые фильмы.

Скачать торрент Пространство Экспансия бесплатно через .torrent фильм мультфильм сериал

Статистика раздачи
Размер:  7.64 GB   |    Зарегистрирован:  1 месяц 12 дней   |    .torrent скачан:  210 раз   |   
Раздают:  1  
   
загрузка...
 
Автор Сообщение

Galfimbul

avatar Galfimbul


Пространство / Экспансия / The Expanse
«We've gone too far»
Производство: США, Канада
Год выпуска: 2018
Жанр: фантастика, триллер, драма, детектив
Продолжительность: ~ 00:43:00 серия
Премьера (мир): 23 ноября 2015, ...
Перевод: Любительский (многоголосый закадровый) |Baibako|
Режиссер: Джефф Вулнаф, Терри МакДонаф, Роберт Либерман
Актеры: Джаред Харрис, Киаран Хайндс, Тобайас Мензис, Крис Корригэн, Иэн Харт, Кристос Лоутон, Мэттью МакНалти, Адам Нагаитис, Нив Нилсен, Пол Рэди
Описание фильма:
В 1845 году экспедиция под командованием опытного полярного исследователя сэра Джона Франклина отправляется на судах «Террор» и «Эребус» к северному побережью Канады на поиск Северо-Западного прохода из Атлантического океана в Тихий — и бесследно исчезает. Поиски ее затянулись на несколько десятилетий, сведения о ее судьбе собирались буквально по крупицам, и до сих пор картина происшедшего пестрит белыми пятнами… Дэн Симмонс, знаменитый автор «Гипериона» и «Эндимиона», «Илиона» и «Олимпа», «Песни Кали» и «Темной игры смерти», предлагает свою версию событий: главную угрозу для экспедиции составляли не сокрушительные объятия льда, не стужа с вьюгой и не испорченные консервы — а неведомое исполинское чудовище, будто сотканное из снега и полярного мрака.


Качество видео: WEBRip
Формат: AVI
Видео: XviD, 720x400 (16:9), 23.976 fps, ~2000 kbps, 0.29 Bits/Pixel
Аудио Rus: AC-3, 48 kHz, 6 ch, 384 kbps |Baibako|
Аудио Eng: AC-3, 48 kHz, 6 ch, 384 kbps |Original|
Субтитры: отсутствуют
Реклама: отсутствует

ОбщееПолное имя : E:\_Сериалы\_Сериалы\Пространство\The.Expanse.s03.WEBRip.Rus.Eng.BaibaKo\The.Expanse.S03E01.WEBRip.Rus.Eng.BaibaKo.aviФормат : AVIФормат/Информация : Audio Video InterleaveРазмер файла : 867 МбайтПродолжительность : 43 м. 37 с.Общий поток : 2780 Кбит/секПрограмма кодирования : VirtualDubMod 1.5.10.3 | www.virtualdub-fr.org || (build 2550/release)Библиотека кодирования : VirtualDubMod build 2550/release

ВидеоИдентификатор : 0Формат : MPEG-4 VisualПрофиль формата : Advanced [email protected]Настройки формата : BVOP1Параметр BVOP формата : 1Параметр QPel формата : НетПараметр GMC формата : Без точки переходаПараметр матрицы формата : Default (MPEG)Идентификатор кодека : XVIDИдентификатор кодека/Подсказка : XviDПродолжительность : 43 м. 37 с.Битрейт : 1998 Кбит/секШирина : 720 пикселейВысота : 400 пикселейСоотношение сторон : 16:9Частота кадров : 23,976 (24000/1001) кадра/секЦветовое пространство : YUVСубдискретизация насыщенности : 4:2:0Битовая глубина : 8 битТип развёртки : ПрогрессивнаяМетод сжатия : С потерямиБит/(Пиксели*Кадры) : 0.289Размер потока : 624 Мбайт (72%)Библиотека кодирования : XviD 1.2.1 (UTC 2008-12-04)

Аудио #1Идентификатор : 1Формат : AC-3Формат/Информация : Audio Coding 3Идентификатор кодека : 2000Продолжительность : 43 м. 37 с.Вид битрейта : ПостоянныйБитрейт : 384 Кбит/секКаналы : 6 каналовРасположение каналов : Front: L C R, Side: L R, LFEЧастота : 48,0 КГцЧастота кадров : 31,250 кадров/сек (1536 SPF)Битовая глубина : 16 битМетод сжатия : С потерямиРазмер потока : 120 Мбайт (14%)Выравнивание : Разделение по промежуткамПродолжительность промежутка : 42 мс. (1,00 видеокадр)Время предзагрузки промежутка : 500 мс.ServiceKind/String : Complete Main

Аудио #2Идентификатор : 2Формат : AC-3Формат/Информация : Audio Coding 3Идентификатор кодека : 2000Продолжительность : 43 м. 37 с.Вид битрейта : ПостоянныйБитрейт : 384 Кбит/секКаналы : 6 каналовРасположение каналов : Front: L C R, Side: L R, LFEЧастота : 48,0 КГцЧастота кадров : 31,250 кадров/сек (1536 SPF)Битовая глубина : 16 битМетод сжатия : С потерямиРазмер потока : 120 Мбайт (14%)Выравнивание : Разделение по промежуткамПродолжительность промежутка : 42 мс. (1,00 видеокадр)Время предзагрузки промежутка : 500 мс.ServiceKind/String : Complete Main


Раздача ведётся путём добавления новых серий; при каждом добавлении создаётся новый торрент.
Чтобы начать докачку новой серии, пользователям необходимо сделать следующее:
1. остановить скачивание,
2. удалить старый торрент у себя из клиента (старые серии удалять не надо),
3. скачать новый торрент и запустить его у себя в клиенте вместо старого, при этом указать клиенту путь в старую папку, куда и должно происходить скачивание новых серий.

Ваш клиент при этом должен произвести хеширование (проверку) старой папки (если не производит сам - помогите ему сделать это), и будет докачивать только те серии которых у вас ещё нет. Старые серии при этом не удаляются, а продолжают раздаваться!

Eсли вы уже удалили старые серии, то предотвратить повторную закачку старых серий можно, отжав галочку в соответствующих местах при запуске нового торрента. По возможности, желательно не удалять старые серии как можно дольше, чтобы релизёр не столько продолжал раздавать старые серии, а смог сконцентрироваться на новых.

Совет для тех, кто не хочет ждать перехеширования:
Создайте ещё одну папку рядом с папкой сериала (рядом, а не в ней!!!). Каждую новую серию после удачной загрузки копируйте в новую папку так чтобы ваша основная папка всегда была пуста. Когда ваш новый торрент предложит вам закачать все файлы, выберете только последнюю. Для сидирования же укажите адрес новой папки.

Как закачать отдельный файл из торрента или докачать ранее пропущенные файлы торрента!

1. Открыть торрент
2. Снять галки с тех файлов торрента, которые мы не хотим закачивать. Оставляем только на нужных нам файлах (файле).
3. Нажать О.К.

В клиенте utorrent

Инструкция

1) Открыть торрент


2) Снять галки с тех файлов торрента, которые мы не хотим закачивать:

* либо вручную, снимая с каждого файла галку( скрин №1)
* либо, нажав кнопку "Снять метки (Select None)", сняв сразу со всех файлов(скрин №2)
№1
№2
Оставляем только на нужных нам файлах (файле).
3)Нажать О.К

Приятного просмотра!!!

Трекер:  [ 08-Июн-2018 11:21 ]

  

Скачать .torrent

Размер .torrent файла 39 KB


Размер: 7.64 GB
Хэш (hash) релиза: f1ed8cc561a9756678da191b0fe422c81183afdd
Подписка на обновления:

Торренты, похожие на Пространство Экспансия скачать торрент

Форум Название Автор Размер S L Добавлен
Зарубежные сериалы ·· Пространство / Экспансия / The Expanse / Сезон: 3 / Серии: 1-9 из 13 (Джефф Вулнаф, Терри МакДонаф, Роберт Либерман) [2018, США, Канада, фантастика, триллер, драма, детектив, WEB-DLRip] MVO (LostFilm) + Original + Subs (Rus, Eng) Galfimbul 81937440317.63 GB 0 0 1527760087

12:48

31-Май-18

Зарубежные сериалы ·· Пространство / Экспансия / The Expanse / Сезон: 3 / Серии: 1-9 из 13 (Роберт Либерман, Терри МакДонаф, Джефф Вулнаф) [2018, США, Фантастика, триллер, драма, детектив, экранизация, WEBRip] DVO (Gears Media) + Original Galfimbul 50577744104.71 GB 0 0 1523652499

23:48

13-Апр-18

Зарубежные сериалы ·· Пространство / Экспансия / The Expanse / Сезон: 3 / Серии: 1-9 из 13 (Роберт Либерман, Терри МакДонаф) [2018, США, фантастика, детектив, WEBRip] MVO (LostFilm) + Original Galfimbul 52393472004.88 GB 0 0 1523652490

23:48

13-Апр-18

Зарубежные сериалы ·· Пространство / Экспансия / The Expanse / Сезон: 3 / Серии: 1-9 из 13 (Роберт Либерман, Терри МакДонаф, Джефф Вулнаф) [2018, США, Фантастика, триллер, драма, детектив, экранизация, WEBRip 720p] DVO (Gears Media) + Original Galfimbul 94499843978.8 GB 0 0 1523648894

22:48

13-Апр-18

Зарубежные сериалы ·· Пространство / Экспансия / The Expanse / Сезон: 3 / Серии: 1-9 из 13 (Роберт Либерман / Robert Lieberman) [2018, США, фантастика, детектив, WEB-DL 1080p] MVO (OmskBird) + Original Galfimbul 2016920974418.78 GB 0 0 1523609292

11:48

13-Апр-18

bot

Раздача обновлена!
Перекачайте торрент-файл.

bot

Раздача обновлена!
Перекачайте торрент-файл.

bot

Раздача обновлена!
Перекачайте торрент-файл.

bot

Раздача обновлена!
Перекачайте торрент-файл.

bot

Раздача обновлена!
Перекачайте торрент-файл.

bot

Раздача обновлена!
Перекачайте торрент-файл.

bot

Раздача обновлена!
Перекачайте торрент-файл.

bot

Раздача обновлена!
Перекачайте торрент-файл.

Хотите добавить комментарий к записи скачать торрент Пространство Экспансия

!Обратная связь