Fox Spirit Matchmaker ... | macOS Mojave 10.14.b1 (18A293u) | Jamie Bamber

Скачать через торрент Бэтмен: Готэм в газовом свете Batman: Gotham by Gaslight Фильм бесплатно в хорошем качестве torrent

Скачивайте на UnionPeer.org фильмы через торрент без регистрации. Новинки кино в хорошем качестве через торрент. На UnionPeer.org можно скачать через торрент фильмы 2014 и 2015 годов. Самые новые фильмы.

Скачать торрент Бэтмен: Готэм в газовом свете Batman: Gotham by Gaslight бесплатно через .torrent фильм мультфильм сериал

Статистика раздачи
Размер:  1.46 GB   |    Зарегистрирован:  2 месяца 11 дней   |    .torrent скачан:  63 раза   |   
Раздают:  1  
   
загрузка...
 
Автор Сообщение

Galfimbul

avatar Galfimbul


Бэтмен: Готэм в газовом свете / Batman: Gotham by Gaslight

Страна: США
Жанр: мультфильм, фэнтези, боевик, криминал, детектив,
Год выпуска: 2018
Продолжительность: 01:17:04
Перевод: Профессиональный (многоголосый закадровый) | Jaskier
Субтитры: нет
Оригинальная аудиодорожка: нет
Режиссер: Сэм Лью / Sam Liu
В ролях: Дженнифер Карпентер, Тара Стронг, Брюс Гринвуд, Скотт Гордон-Паттерсон, Кари Уорер, Грей ДеЛайл, Джон Ди Маджио, Энтони Хэд, Линкольн Мелчер, Юрий Ловенталь
Описание: В альтернативной истории в 1889 году Брюс Уэйн возвращается в Готэм из своего путешествия по Европе. Город викторианской эпохи всё так же привлекает преступников. Череда загадочных и зверских убийств заставляет жителей подозревать, что убийца — Бэтмен. Тёмному Рыцарю бросает вызов самый известный маньяк XIX века — Джек-потрошитель
Качество видео: BDRip | Batman.Gotham.by.Gaslight.2018.1080p.Blu.Ray.Remux.DD.5.1
Формат видео: AVI

Видео: 720x400 (1.80:1), 23.976 fps, XviD build 73 ~2251 kbps avg, 0.33 bit/pixel
Аудио: 48 kHz, AC3 Dolby Digital, 3/2 (L,C,R,l,r) + LFE ch, ~448 kbps
Сэмпл
Format                      : AVI
Format/Info                 : Audio Video Interleave
File size                   : 1.46 GiB
Duration                    : 1 h 17 min
Overall bit rate            : 2 709 kb/s
Writing application         : VirtualDubMod 1.5.10.3 | www.virtualdub-fr.org || (build 2550/release)
Writing library             : VirtualDubMod build 2550/release

Video
ID                          : 0
Format                      : MPEG-4 Visual
Format profile              : Advanced [email protected]
Format settings             : BVOP1 / Custom Matrix
Format settings, BVOP       : 1
Format settings, QPel       : No
Format settings, GMC        : No warppoints
Format settings, Matrix     : Custom
Codec ID                    : XVID
Codec ID/Hint               : XviD
Duration                    : 1 h 17 min
Bit rate                    : 2 251 kb/s
Width                       : 720 pixels
Height                      : 400 pixels
Display aspect ratio        : 16:9
Frame rate                  : 23.976 (24000/1001) FPS
Color space                 : YUV
Chroma subsampling          : 4:2:0
Bit depth                   : 8 bits
Scan type                   : Progressive
Compression mode            : Lossy
Bits/(Pixel*Frame)          : 0.326
Stream size                 : 1.21 GiB (83%)
Writing library             : XviD 73

Audio
ID                          : 1
Format                      : AC-3
Format/Info                 : Audio Coding 3
Codec ID                    : 2000
Duration                    : 1 h 17 min
Bit rate mode               : Constant
Bit rate                    : 448 kb/s
Channel(s)                  : 6 channels
Channel positions           : Front: L C R, Side: L R, LFE
Sampling rate               : 48.0 kHz
Frame rate                  : 31.250 FPS (1536 SPF)
Bit depth                   : 16 bits
Compression mode            : Lossy
Stream size                 : 247 MiB (17%)
Alignment                   : Split accross interleaves
Interleave, duration        : 42  ms (1.00 video frame)
Interleave, preload duratio : 500  ms
Service kind                : Complete Main


Трекер:  [ 14-Апр-2018 09:01 ]

  

Скачать .torrent

Размер .torrent файла 15 KB


Размер: 1.46 GB
Хэш (hash) релиза: d6fa5cb130ab6d18d11931ccb38861c48ffeec8a
Подписка на обновления:

Торренты, похожие на Бэтмен: Готэм в газовом свете Batman: Gotham by Gaslight скачать торрент

Форум Название Автор Размер S L Добавлен
Мультфильмы 2016-2018 (Новинки мультфильмов) ·· Бэтмен: Готэм в газовом свете / Batman: Gotham by Gaslight (Сэм Лью / Sam Liu) [2018, мультфильм, боевик, BDRip 1080p] Jaskier Galfimbul 39459520423.67 GB 0 0 1523589644

06:20

13-Апр-18

Мультфильмы 2016-2018 (Новинки мультфильмов) ·· Бэтмен: Готэм в газовом свете / Batman: Gotham by Gaslight (Сэм Лью / Sam Liu) [2018, мультфильм, боевик, BDRip 720p] Jaskier Galfimbul 22090650532.06 GB 0 0 1523589631

06:20

13-Апр-18

Мультфильмы 2016-2018 (Новинки мультфильмов) ·· Бэтмен: Готэм в газовом свете / Batman: Gotham by Gaslight (Сэм Лью / Sam Liu) [2018, мультфильм, боевик, HDRip] Jaskier Galfimbul 14736547841.37 GB 0 0 1523589619

06:20

13-Апр-18

Мультфильмы до 2016 ·· Бэтмен: Готэм в газовом свете / Batman: Gotham by Gaslight (Сэм Лью / Sam Liu) [2018, мультфильм, боевик, BDRemux 1080p] MVO + Original Eng + rus, eng sub Galfimbul 1139283933610.61 GB 0 0 1522785691

23:01

3-Апр-18

Мультфильмы 2016-2018 (Новинки мультфильмов) ·· Бэтмен: Готэм в газовом свете / Batman: Gotham by Gaslight (Сэм Лью) [2018, США, мультфильм, фэнтези, боевик, криминал, детектив, WEBRip 720p] RusFilm Galfimbul 979235237934 MB 0 0 1521795631

12:00

23-Мар-18

Мультфильмы до 2016 ·· Бэтмен: Готэм в газовом свете / Batman: Gotham by Gaslight (Сэм Лью) [2018, США, мультфильм, фэнтези, боевик, криминал, детектив, BDRip 1080p] MVO (D1) + Original (Eng) Galfimbul 59806397435.57 GB 0 0 1518608185

14:36

14-Фев-18

Мультфильмы 2016-2018 (Новинки мультфильмов) ·· Бэтмен: Готэм в газовом свете / Batman: Gotham by Gaslight (Сэм Лью / Sam Liu) [2017, мультфильм, боевик, BDRip 1080p] D1production Galfimbul 59806397965.57 GB 0 0 1518327063

08:31

11-Фев-18

Мультфильмы 2016-2018 (Новинки мультфильмов) ·· Бэтмен: Готэм в газовом свете / Batman: Gotham by Gaslight (Сэм Лью / Sam Liu) [2017, мультфильм, боевик, BDRip 720p] D1production Galfimbul 36270769063.38 GB 0 0 1518327045

08:30

11-Фев-18

Мультфильмы до 2016 ·· Бэтмен: Готэм в газовом свете / Batman: Gotham by Gaslight (Сэм Лью / Sam Liu) [2017, мультфильм, боевик, Blu-Ray > DVD5 (Custom)] MVO + Original Eng + rus, eng sub Galfimbul 46577745924.34 GB 0 0 1518069992

09:06

8-Фев-18

Мультфильмы 2016-2018 (Новинки мультфильмов) ·· Бэтмен: Готэм в газовом свете / Batman: Gotham by Gaslight (Сэм Лью/Sam Liu) [2018, США, Мультфильм, фэнтези, боевик, криминал, детектив, WEBRip 720p] Flarrow Films Galfimbul 25713337782.39 GB 0 0 1517752250

16:50

4-Фев-18

Мультфильмы до 2016 ·· Бэтмен: Готэм в газовом свете / Batman: Gotham by Gaslight (Сэм Лью/Sam Liu) [2018, США, Мультфильм, фэнтези, боевик, криминал, детектив, BDRip 1080p] MVO + Rus Sub Galfimbul 31899675172.97 GB 0 0 1517679388

20:36

3-Фев-18

Мультфильмы до 2016 ·· Бэтмен: Готэм в Газовом Свете / Batman: Gotham by Gaslight (Сэм Лью) [2018, США, мультфильм, фэнтези, боевик, криминал, детектив, BDRip 1080p] Rus Sub Galfimbul 30787686322.87 GB 0 0 1516975586

17:06

26-Янв-18

Еще никто не оставлял запись к записи скачать торрент Бэтмен: Готэм в газовом свете Batman: Gotham by Gaslight . Будь первым!

!Обратная связь