8
Prehistoric Park – Aussterben war gestern

Скачать через торрент музыку Лара Крофт Tomb Raider бесплатно без регистрации torrent

Статистика раздачи
Размер:  452 MB   |    Зарегистрирован:  6 дней   |    .torrent скачан:  26 раз   |   
Раздают:  1  
   
загрузка...
 
Автор Сообщение

Galfimbul

avatar Galfimbul


Лара Крофт / Tomb Raider

Название альбома: Tomb Raider
Жанр: Score
Композитор: Tom Holkenborg aka Junkie XL
Год выпуска диска: 2018
Год выпуска фильма: 2018
Производитель диска: US
Издатель (лейбл): Sony Classical
Номер по каталогу: 19075837882
Аудиокодек: FLAC
Тип рипа: tracks+.cue
Битрейт аудио: lossless
Продолжительность: 01:12:17
Источник: Спасибо, Filex
ID3-теги: да
Наличие сканов в содержимом раздачи: да
01. Junkie XL - Return to Croft Manor (8:13)
02. Junkie XL - Seeking Endurance (1:10)
03. Junkie XL - The Bag (1:49)
04. Junkie XL - Path of Paternal Secrets (3:40)
05. Junkie XL - The Devil's Sea (4:12)
06. Junkie XL - Let Yamatai Have Her (13:24)
07. Junkie XL - Figure in the Night (4:15)
08. Junkie XL - Remember This (3:26)
09. Junkie XL - Never Give Up (5:36)
10. Junkie XL - Karakuri Wall (4:38)
11. Junkie XL - What Lies Underneath Yamatai (8:35)
12. Junkie XL - There's No Time (4:02)
13. Junkie XL - Becoming the Tomb Raider (7:16)
14. Junkie XL - The Croft Legacy (2:01)
Exact Audio Copy V1.3 from 2. September 2016

EAC extraction logfile from 12. April 2018, 20:15

Junkie XL / Tomb Raider

Used drive : PLEXTOR CD-R PX-230A Adapter: 1 ID: 0

Read mode : SecureUtilize accurate stream : YesDefeat audio cache : YesMake use of C2 pointers : No

Read offset correction : 738Overread into Lead-In and Lead-Out : NoFill up missing offset samples with silence : YesDelete leading and trailing silent blocks : NoNull samples used in CRC calculations : YesUsed interface : Native Win32 interface for Win NT & 2000Gap handling : Appended to previous track

Used output format : User Defined EncoderSelected bitrate : 1024 kBit/sQuality : HighAdd ID3 tag : NoCommand line compressor : C:\Program Files\Exact Audio Copy\Flac\flac.exeAdditional command line options : -6 -V -T "ARTIST=%artist%" -T "TITLE=%title%" -T "ALBUM=%albumtitle%" -T "DATE=%year%" -T "TRACKNUMBER=%tracknr%" -T "GENRE=%genre%" -T "COMMENT=%comment%" -T "ALBUMARTIST=%albuminterpret%" -T "COMPOSER=%composer%" -T "DISCNUMBER=%cdnumber%" -T "TOTALDISCS=%totalcds%" -T "TOTALTRACKS=%numtracks%" %source% -o %dest%

TOC of the extracted CD

Track | Start | Length | Start sector | End sector --------------------------------------------------------- 1 | 0:00.00 | 8:13.00 | 0 | 36974 2 | 8:13.00 | 1:09.56 | 36975 | 42205 3 | 9:22.56 | 1:49.21 | 42206 | 50401 4 | 11:12.02 | 3:39.57 | 50402 | 66883 5 | 14:51.59 | 4:11.55 | 66884 | 85763 6 | 19:03.39 | 13:23.56 | 85764 | 146044 7 | 32:27.20 | 4:15.36 | 146045 | 165205 8 | 36:42.56 | 3:26.09 | 165206 | 180664 9 | 40:08.65 | 5:36.37 | 180665 | 205901 10 | 45:45.27 | 4:38.06 | 205902 | 226757 11 | 50:23.33 | 8:35.07 | 226758 | 265389 12 | 58:58.40 | 4:01.70 | 265390 | 283534 13 | 63:00.35 | 7:15.58 | 283535 | 316217 14 | 70:16.18 | 2:00.48 | 316218 | 325265

Track 1

Filename C:\Ripped by Filex\01 - Return to Croft Manor.wav

Pre-gap length 0:00:02.00

Peak level 97.5 % Extraction speed 7.6 X Track quality 99.9 % Test CRC 9AAF996B Copy CRC 9AAF996B Track not present in AccurateRip database Copy OK

Track 2

Filename C:\Ripped by Filex\02 - Seeking Endurance.wav

Peak level 97.5 % Extraction speed 6.5 X Track quality 100.0 % Test CRC 180CDE36 Copy CRC 180CDE36 Track not present in AccurateRip database Copy OK

Track 3

Filename C:\Ripped by Filex\03 - The Bag.wav

Peak level 97.9 % Extraction speed 7.3 X Track quality 100.0 % Test CRC 17987239 Copy CRC 17987239 Track not present in AccurateRip database Copy OK

Track 4

Filename C:\Ripped by Filex\04 - Path of Paternal Secrets.wav

Peak level 97.5 % Extraction speed 7.0 X Track quality 99.9 % Test CRC 70967CE0 Copy CRC 70967CE0 Track not present in AccurateRip database Copy OK

Track 5

Filename C:\Ripped by Filex\05 - The Devil's Sea.wav

Peak level 97.6 % Extraction speed 8.5 X Track quality 100.0 % Test CRC BAF69A42 Copy CRC BAF69A42 Track not present in AccurateRip database Copy OK

Track 6

Filename C:\Ripped by Filex\06 - Let Yamatai Have Her.wav

Peak level 98.8 % Extraction speed 9.7 X Track quality 99.9 % Test CRC 7D977B7D Copy CRC 7D977B7D Track not present in AccurateRip database Copy OK

Track 7

Filename C:\Ripped by Filex\07 - Figure in the Night.wav

Peak level 97.8 % Extraction speed 9.4 X Track quality 100.0 % Test CRC B0F80188 Copy CRC B0F80188 Track not present in AccurateRip database Copy OK

Track 8

Filename C:\Ripped by Filex\08 - Remember This.wav

Peak level 70.7 % Extraction speed 9.5 X Track quality 100.0 % Test CRC 69CA3CE8 Copy CRC 69CA3CE8 Track not present in AccurateRip database Copy OK

Track 9

Filename C:\Ripped by Filex\09 - Never Give Up.wav

Peak level 97.7 % Extraction speed 10.2 X Track quality 100.0 % Test CRC 121FC297 Copy CRC 121FC297 Track not present in AccurateRip database Copy OK

Track 10

Filename C:\Ripped by Filex\10 - Karakuri Wall.wav

Peak level 97.5 % Extraction speed 10.4 X Track quality 100.0 % Test CRC 7569E5E8 Copy CRC 7569E5E8 Track not present in AccurateRip database Copy OK

Track 11

Filename C:\Ripped by Filex\11 - What Lies Underneath Yamatai.wav

Peak level 97.5 % Extraction speed 11.3 X Track quality 100.0 % Test CRC B943D1EE Copy CRC B943D1EE Track not present in AccurateRip database Copy OK

Track 12

Filename C:\Ripped by Filex\12 - There's No Time.wav

Peak level 97.7 % Extraction speed 11.1 X Track quality 100.0 % Test CRC 511D6A1E Copy CRC 511D6A1E Track not present in AccurateRip database Copy OK

Track 13

Filename C:\Ripped by Filex\13 - Becoming the Tomb Raider.wav

Peak level 97.5 % Extraction speed 12.0 X Track quality 100.0 % Test CRC B67CA695 Copy CRC B67CA695 Track not present in AccurateRip database Copy OK

Track 14

Filename C:\Ripped by Filex\14 - The Croft Legacy.wav

Peak level 97.5 % Extraction speed 10.3 X Track quality 100.0 % Test CRC DBA3483B Copy CRC DBA3483B Track not present in AccurateRip database Copy OK

None of the tracks are present in the AccurateRip database

No errors occurred

End of status report

---- CUETools DB Plugin V2.1.6

[CTDB TOCID: kWYCsOW6.92iBW1x9tk0J2ylLfU-] foundSubmit result: kWYCsOW6.92iBW1x9tk0J2ylLfU- has been confirmedTrack | CTDB Status 1 | (7/7) Accurately ripped 2 | (7/7) Accurately ripped 3 | (7/7) Accurately ripped 4 | (7/7) Accurately ripped 5 | (7/7) Accurately ripped 6 | (7/7) Accurately ripped 7 | (7/7) Accurately ripped 8 | (7/7) Accurately ripped 9 | (7/7) Accurately ripped 10 | (7/7) Accurately ripped 11 | (7/7) Accurately ripped 12 | (7/7) Accurately ripped 13 | (7/7) Accurately ripped 14 | (7/7) Accurately ripped

==== Log checksum FDD882C3F983D9BB75772B04BA8D3D2849A1EA63769060578EF2E23952FEA9AA ====
REM GENRE SoundtrackREM DATE 2018REM DISCID C610F00EREM COMMENT "ExactAudioCopy v1.3"PERFORMER "Junkie XL"TITLE "Tomb Raider"REM COMPOSER "Junkie XL"FILE "01 - Return to Croft Manor.wav" WAVE TRACK 01 AUDIO TITLE "Return to Croft Manor" PERFORMER "Junkie XL" REM COMPOSER "Junkie XL" INDEX 01 00:00:00FILE "02 - Seeking Endurance.wav" WAVE TRACK 02 AUDIO TITLE "Seeking Endurance" PERFORMER "Junkie XL" REM COMPOSER "Junkie XL" INDEX 01 00:00:00FILE "03 - The Bag.wav" WAVE TRACK 03 AUDIO TITLE "The Bag" PERFORMER "Junkie XL" REM COMPOSER "Junkie XL" INDEX 01 00:00:00FILE "04 - Path of Paternal Secrets.wav" WAVE TRACK 04 AUDIO TITLE "Path of Paternal Secrets" PERFORMER "Junkie XL" REM COMPOSER "Junkie XL" INDEX 01 00:00:00FILE "05 - The Devil's Sea.wav" WAVE TRACK 05 AUDIO TITLE "The Devil's Sea" PERFORMER "Junkie XL" REM COMPOSER "Junkie XL" INDEX 01 00:00:00FILE "06 - Let Yamatai Have Her.wav" WAVE TRACK 06 AUDIO TITLE "Let Yamatai Have Her" PERFORMER "Junkie XL" REM COMPOSER "Junkie XL" INDEX 01 00:00:00FILE "07 - Figure in the Night.wav" WAVE TRACK 07 AUDIO TITLE "Figure in the Night" PERFORMER "Junkie XL" REM COMPOSER "Junkie XL" INDEX 01 00:00:00FILE "08 - Remember This.wav" WAVE TRACK 08 AUDIO TITLE "Remember This" PERFORMER "Junkie XL" REM COMPOSER "Junkie XL" INDEX 01 00:00:00FILE "09 - Never Give Up.wav" WAVE TRACK 09 AUDIO TITLE "Never Give Up" PERFORMER "Junkie XL" REM COMPOSER "Junkie XL" INDEX 01 00:00:00FILE "10 - Karakuri Wall.wav" WAVE TRACK 10 AUDIO TITLE "Karakuri Wall" PERFORMER "Junkie XL" REM COMPOSER "Junkie XL" INDEX 01 00:00:00FILE "11 - What Lies Underneath Yamatai.wav" WAVE TRACK 11 AUDIO TITLE "What Lies Underneath Yamatai" PERFORMER "Junkie XL" REM COMPOSER "Junkie XL" INDEX 01 00:00:00FILE "12 - There's No Time.wav" WAVE TRACK 12 AUDIO TITLE "There's No Time" PERFORMER "Junkie XL" REM COMPOSER "Junkie XL" INDEX 01 00:00:00FILE "13 - Becoming the Tomb Raider.wav" WAVE TRACK 13 AUDIO TITLE "Becoming the Tomb Raider" PERFORMER "Junkie XL" REM COMPOSER "Junkie XL" INDEX 01 00:00:00FILE "14 - The Croft Legacy.wav" WAVE TRACK 14 AUDIO TITLE "The Croft Legacy" PERFORMER "Junkie XL" REM COMPOSER "Junkie XL" INDEX 01 00:00:00


RG Soundtracks


Трекер:  [ 14-Апр-2018 07:06 ]

  

Скачать .torrent

Размер .torrent файла 19 KB


Размер: 452 MB
Хэш (hash) релиза: 802df8ee5251312e0554870ae3d949197f3375ed

Торренты, похожие на Лара Крофт Tomb Raider скачать торрент

Форум Название Автор Размер S L Добавлен
Саундтреки к фильмам и мультфильмам (lossless) ·· (Score) Лара Крофт / Tomb Raider (Tom Holkenborg aka Junkie XL) - 2018, FLAC (tracks), lossless Galfimbul 405926546387 MB 0 0 1520537995

22:39

8-Мар-18

Саундтреки к фильмам и мультфильмам (mp3) ·· (Score) Tomb Raider: Лара Крофт (Seeking Endurance) (by Junkie XL) - 2018, MP3, 320 kbps Galfimbul 37715164 MB 0 0 1520196134

23:42

4-Мар-18

Саундтреки к фильмам и мультфильмам (lossless) ·· (Soundtrack) Лара Крофт: Расхитительница Гробниц - Дилогия [Бразильские релизы] / Lara Croft: Tomb Raider - Duology [Brazilian Releases], 2001/2003, FLAC (tracks + .cue), lossless Galfimbul 1024536691977 MB 0 0 1516299123

21:12

18-Янв-18

Саундтреки к фильмам и мультфильмам (lossless) ·· (Score) Лара Крофт: Расхитительница гробниц / Lara Croft: Tomb Raider (Graeme Revell) - 2001, APE (image+.cue), lossless FRANKS 239225040228 MB 0 0 1292270442

23:00

13-Дек-10

Саундтреки к фильмам и мультфильмам (lossless) ·· (Soundtrack) Лара Крофт: Расхитительница гробниц 2 - Колыбель жизни / Lara Croft Tomb Raider: The Cradle of Life (by Alan Silvestri & VA) - 2003, FLAC (tracks+.cue), lossless Galfimbul 491133008468 MB 0 0 1292270324

22:58

13-Дек-10

Саундтреки к фильмам и мультфильмам (lossless) ·· (Soundtrack) Лара Крофт: Расхитительница Гробниц / Lara Croft: Tomb Raider - 2001, FLAC (image + .cue), lossless Galfimbul 482469225460 MB 0 0 1292268797

22:33

13-Дек-10

Саундтреки к фильмам и мультфильмам (mp3) ·· (Soundtrack) Лара Крофт: Расхитительница гробниц / Lara Croft: Tomb Raider [Full OST] (2001-2003), MP3 (tracks), 320 kbps Galfimbul 333973816319 MB 0 0 1292266062

21:47

13-Дек-10

Еще никто не оставлял запись к записи скачать торрент Лара Крофт Tomb Raider . Будь первым!

!Обратная связь