Stephanie Garber: Caraval (Caraval #1)
Evil Teen Records

Скачать через торрент музыку Sonic Forces Original Soundtrack - A Hero Will Rise бесплатно без регистрации torrent

Статистика раздачи
Размер:  1.42 GB   |    Зарегистрирован:  7 дней   |    .torrent скачан:  39 раз   |   
Раздают:  1  
   
загрузка...
 
Автор Сообщение

Galfimbul

avatar Galfimbul


Sonic Forces Original Soundtrack - A Hero Will Rise

Жанр: Score
Композиторы: Tomoya Ohtani, Naofumi Hataya, Kenichi Tokoi, Takahito Eguchi
Год выпуска диска: 2017
Издатель (лейбл): Wave Master Entertainment
Номер по каталогу: WWCE-31408~10
Аудиокодек: FLAC (*.flac)
Тип рипа: tracks+.cue
Битрейт аудио: lossless
Продолжительность: 03:33:21
Источник: скачано с Apollo.rip
Наличие сканов в содержимом раздачи: да
Треклист:
01. Douglas Robb from Hoobastank – Fist Bump (04:29)
02. London Symphony Orchestra – Theme of the Resistance - Title Screen ver. (01:48)
03. Takahito Eguchi – Cutscene - Quickening of Evil (00:44)
04. Tomoya Ohtani – Lost Valley (02:38)
05. London Symphony Orchestra – Cutscene - A Hero Falls (01:39)
06. London Symphony Orchestra – Theme of the Resistance (02:04)
07. London Symphony Orchestra – This Is Our World - A New Hero (02:23)
08. Tomoya Ohtani – Fighting Onward - Space Port (feat. Jon Underdown) (04:55)
09. Kenichi Tokoi – Action on the Rails (00:32)
10. Takahito Eguchi – Cutscene - It's Good to See a Sonic (01:06)
11. Naofumi Hataya – Ghost Town (02:58)
12. Tomoya Ohtani – Unstoppable (00:37)
13. Takahito Eguchi – Cutscene - Frightful Reflection (00:41)
14. Tomoya Ohtani – Nowhere to Run - Prison Hall (feat. Madeleine Wood) (04:23)
15. Takahito Eguchi – Cutscene - Zavok Appears (00:34)
16. Kenichi Tokoi – Battle with Death Queen [Battle with Zavok Remix] (03:55)
17. Tomoya Ohtani – Egg Gate (02:56)
18. Kenichi Tokoi – Danger in the Sky (00:36)
19. Tomoya Ohtani – Arsenal Pyramid (02:44)
20. Tomoya Ohtani – Arsenal Pyramid - Interior (02:37)
21. Tomoya Ohtani – Double Boost! (00:41)
22. Tomoya Ohtani – Luminous Forest (03:14)
23. Kenichi Tokoi – Coiled to Strike (00:35)
24. London Symphony Orchestra – Taking It Back (01:19)
25. London Symphony Orchestra – This Is Our World - Phase 1 (02:24)
26. London Symphony Orchestra – This Is Who You Are (04:16)
27. Tomoya Ohtani – Up To The Challenge (01:04)
28. London Symphony Orchestra – Mission Failed (00:15)
29. Tomoya Ohtani – Fist Bump - Instrumental ver. (01:58)
30. Koji Igarashi – Fist Bump - Piano ver. (05:45)
<div class="sp-wrap">
<div class="sp-head folded">Лог создания рипа</div>
<div class="sp-body">

Exact Audio Copy V1.3 from 2. September 2016

EAC extraction logfile from 10. April 2018, 14:26

Various Artists / Sonic Forces Original Soundtrack [A Hero Will Rise]

Used drive : HL-DT-STBD-RE BE14NU40 Adapter: 1 ID: 1

Read mode : SecureUtilize accurate stream : YesDefeat audio cache : YesMake use of C2 pointers : No

Read offset correction : 6Overread into Lead-In and Lead-Out : NoFill up missing offset samples with silence : YesDelete leading and trailing silent blocks : NoNull samples used in CRC calculations : YesUsed interface : Native Win32 interface for Win NT & 2000Gap handling : Appended to previous track

Used output format : User Defined EncoderSelected bitrate : 896 kBit/sQuality : HighAdd ID3 tag : NoCommand line compressor : C:\Program Files\flac\win64\flac.exeAdditional command line options : -8 -e -p -V -T "ARTIST=%artist%" -T "TITLE=%title%" -T "ALBUM=%albumtitle%" -T "DATE=%year%" -T "TRACKNUMBER=%tracknr%" -T "GENRE=%genre%" -T "PERFORMER=%albuminterpret%" -T "COMPOSER=%composer%" %haslyrics%--tag-from-file=LYRICS="%lyricsfile%"%haslyrics% -T "ALBUMARTIST=%albumartist%" -T "DISCNUMBER=%cdnumber%" -T "TOTALDISCS=%totalcds%" -T "TOTALTRACKS=%numtracks%" -T "COMMENT=%comment%" %source% -o %dest%

TOC of the extracted CD

Track | Start | Length | Start sector | End sector --------------------------------------------------------- 1 | 0:00.00 | 4:29.30 | 0 | 20204 2 | 4:29.30 | 1:47.55 | 20205 | 28284 3 | 6:17.10 | 0:44.02 | 28285 | 31586 4 | 7:01.12 | 2:37.64 | 31587 | 43425 5 | 9:39.01 | 1:39.26 | 43426 | 50876 6 | 11:18.27 | 2:04.25 | 50877 | 60201 7 | 13:22.52 | 2:23.02 | 60202 | 70928 8 | 15:45.54 | 4:55.18 | 70929 | 93071 9 | 20:40.72 | 0:32.16 | 93072 | 95487 10 | 21:13.13 | 1:05.66 | 95488 | 100428 11 | 22:19.04 | 2:57.73 | 100429 | 113776 12 | 25:17.02 | 0:37.19 | 113777 | 116570 13 | 25:54.21 | 0:41.06 | 116571 | 119651 14 | 26:35.27 | 4:22.39 | 119652 | 139340 15 | 30:57.66 | 0:34.06 | 139341 | 141896 16 | 31:31.72 | 3:54.40 | 141897 | 159486 17 | 35:26.37 | 2:56.01 | 159487 | 172687 18 | 38:22.38 | 0:35.73 | 172688 | 175385 19 | 38:58.36 | 2:43.37 | 175386 | 187647 20 | 41:41.73 | 2:36.39 | 187648 | 199386 21 | 44:18.37 | 0:41.01 | 199387 | 202462 22 | 44:59.38 | 3:14.09 | 202463 | 217021 23 | 48:13.47 | 0:35.03 | 217022 | 219649 24 | 48:48.50 | 1:19.01 | 219650 | 225575 25 | 50:07.51 | 2:23.42 | 225576 | 236342 26 | 52:31.18 | 4:15.36 | 236343 | 255503 27 | 56:46.54 | 1:04.13 | 255504 | 260316 28 | 57:50.67 | 0:15.17 | 260317 | 261458 29 | 58:06.09 | 1:57.61 | 261459 | 270294 30 | 60:03.70 | 5:44.51 | 270295 | 296145

Track 1

Filename C:\EAC\01 - Douglas Robb from Hoobastank - Fist Bump.wav

Pre-gap length 0:00:02.00

Peak level 99.9 % Extraction speed 2.0 X Track quality 100.0 % Test CRC 95147A64 Copy CRC 95147A64 Accurately ripped (confidence 4) [F60B8A26] (AR v2) Copy OK

Track 2

Filename C:\EAC\02 - London Symphony Orchestra - Theme of the Resistance - Title Screen ver..wav

Peak level 99.9 % Extraction speed 1.0 X Track quality 100.0 % Test CRC EDAF8FE3 Copy CRC EDAF8FE3 Accurately ripped (confidence 4) [4F808465] (AR v2) Copy OK

Track 3

Filename C:\EAC\03 - Takahito Eguchi - Cutscene - Quickening of Evil.wav

Peak level 99.7 % Extraction speed 0.8 X Track quality 100.0 % Test CRC 7B371FDC Copy CRC 7B371FDC Accurately ripped (confidence 4) [58FD8DC2] (AR v2) Copy OK

Track 4

Filename C:\EAC\04 - Tomoya Ohtani - Lost Valley.wav

Peak level 99.9 % Extraction speed 1.2 X Track quality 100.0 % Test CRC 6E36630D Copy CRC 6E36630D Accurately ripped (confidence 4) [60381405] (AR v2) Copy OK

Track 5

Filename C:\EAC\05 - London Symphony Orchestra - Cutscene - A Hero Falls.wav

Peak level 99.7 % Extraction speed 1.1 X Track quality 100.0 % Test CRC 73B86290 Copy CRC 73B86290 Accurately ripped (confidence 4) [19AE1338] (AR v2) Copy OK

Track 6

Filename C:\EAC\06 - London Symphony Orchestra - Theme of the Resistance.wav

Peak level 99.7 % Extraction speed 1.2 X Track quality 100.0 % Test CRC 44B7BB0D Copy CRC 44B7BB0D Accurately ripped (confidence 4) [CCA8B9B5] (AR v2) Copy OK

Track 7

Filename C:\EAC\07 - London Symphony Orchestra - This Is Our World - A New Hero.wav

Peak level 99.7 % Extraction speed 1.3 X Track quality 100.0 % Test CRC 84A1B24D Copy CRC 84A1B24D Accurately ripped (confidence 4) [46D66305] (AR v2) Copy OK

Track 8

Filename C:\EAC\08 - Tomoya Ohtani feat. Jon Underdown - Fighting Onward - Space Port.wav

Peak level 99.9 % Extraction speed 1.5 X Track quality 100.0 % Test CRC 15951EBE Copy CRC 15951EBE Accurately ripped (confidence 4) [A6E94AF6] (AR v2) Copy OK

Track 9

Filename C:\EAC\09 - Kenichi Tokoi - Action on the Rails.wav

Peak level 99.9 % Extraction speed 0.5 X Track quality 99.6 % Test CRC D55CC983 Copy CRC D55CC983 Accurately ripped (confidence 4) [0849923B] (AR v2) Copy OK

Track 10

Filename C:\EAC\10 - Takahito Eguchi - Cutscene - It's Good to See a Sonic.wav

Peak level 99.8 % Extraction speed 1.2 X Track quality 100.0 % Test CRC EE210FBC Copy CRC EE210FBC Accurately ripped (confidence 4) [871EE01A] (AR v2) Copy OK

Track 11

Filename C:\EAC\11 - Naofumi Hataya - Ghost Town.wav

Peak level 99.9 % Extraction speed 1.3 X Track quality 99.9 % Test CRC F9F4C57F Copy CRC F9F4C57F Accurately ripped (confidence 4) [D47299B2] (AR v2) Copy OK

Track 12

Filename C:\EAC\12 - Tomoya Ohtani - Unstoppable.wav

Peak level 99.7 % Extraction speed 0.9 X Track quality 100.0 % Test CRC F3ABA0B3 Copy CRC F3ABA0B3 Accurately ripped (confidence 4) [9ADA1B3F] (AR v2) Copy OK

Track 13

Filename C:\EAC\13 - Takahito Eguchi - Cutscene - Frightful Reflection.wav

Peak level 99.7 % Extraction speed 1.0 X Track quality 100.0 % Test CRC AF688D82 Copy CRC AF688D82 Accurately ripped (confidence 4) [AFA08279] (AR v2) Copy OK

Track 14

Filename C:\EAC\14 - Tomoya Ohtani feat. Madeleine Wood - Nowhere to Run - Prison Hall.wav

Peak level 99.9 % Extraction speed 1.7 X Track quality 100.0 % Test CRC A8F00B02 Copy CRC A8F00B02 Accurately ripped (confidence 4) [D89A9E5E] (AR v2) Copy OK

Track 15

Filename C:\EAC\15 - Takahito Eguchi - Cutscene - Zavok Appears.wav

Peak level 99.7 % Extraction speed 0.9 X Track quality 100.0 % Test CRC 4B6DFF4B Copy CRC 4B6DFF4B Accurately ripped (confidence 4) [59A05B92] (AR v2) Copy OK

Track 16

Filename C:\EAC\16 - Kenichi Tokoi - Battle with Death Queen [Battle with Zavok Remix].wav

Peak level 97.7 % Extraction speed 1.8 X Track quality 100.0 % Test CRC 1F81B530 Copy CRC 1F81B530 Accurately ripped (confidence 4) [4FC86836] (AR v2) Copy OK

Track 17

Filename C:\EAC\17 - Tomoya Ohtani - Egg Gate.wav

Pre-gap length 0:00:01.00

Peak level 99.9 % Extraction speed 1.8 X Track quality 100.0 % Test CRC 12A5F11E Copy CRC 12A5F11E Accurately ripped (confidence 4) [914397C8] (AR v2) Copy OK

Track 18

Filename C:\EAC\18 - Kenichi Tokoi - Danger in the Sky.wav

Peak level 99.9 % Extraction speed 1.1 X Track quality 100.0 % Test CRC 12EFDF4E Copy CRC 12EFDF4E Accurately ripped (confidence 4) [CC7F78B3] (AR v2) Copy OK

Track 19

Filename C:\EAC\19 - Tomoya Ohtani - Arsenal Pyramid.wav

Peak level 99.9 % Extraction speed 1.8 X Track quality 100.0 % Test CRC 67D454A6 Copy CRC 67D454A6 Accurately ripped (confidence 4) [F9D9C45B] (AR v2) Copy OK

Track 20

Filename C:\EAC\20 - Tomoya Ohtani - Arsenal Pyramid - Interior.wav

Peak level 99.9 % Extraction speed 1.8 X Track quality 100.0 % Test CRC 106730E7 Copy CRC 106730E7 Accurately ripped (confidence 4) [2A2707D0] (AR v2) Copy OK

Track 21

Filename C:\EAC\21 - Tomoya Ohtani - Double Boost!.wav

Peak level 99.9 % Extraction speed 1.2 X Track quality 100.0 % Test CRC FCCF658A Copy CRC FCCF658A Accurately ripped (confidence 4) [D28DD45C] (AR v2) Copy OK

Track 22

Filename C:\EAC\22 - Tomoya Ohtani - Luminous Forest.wav

Peak level 99.9 % Extraction speed 2.0 X Track quality 100.0 % Test CRC B583170C Copy CRC B583170C Accurately ripped (confidence 4) [880143DB] (AR v2) Copy OK

Track 23

Filename C:\EAC\23 - Kenichi Tokoi - Coiled to Strike.wav

Peak level 99.8 % Extraction speed 1.1 X Track quality 100.0 % Test CRC 4B41537D Copy CRC 4B41537D Accurately ripped (confidence 4) [E970BCEA] (AR v2) Copy OK

Track 24

Filename C:\EAC\24 - London Symphony Orchestra - Taking It Back.wav

Peak level 99.9 % Extraction speed 1.2 X Track quality 99.8 % Test CRC D47BDDA3 Copy CRC D47BDDA3 Accurately ripped (confidence 4) [24C9AE5E] (AR v2) Copy OK

Track 25

Filename C:\EAC\25 - London Symphony Orchestra - This Is Our World - Phase 1.wav

Peak level 99.7 % Extraction speed 1.9 X Track quality 100.0 % Test CRC 7548A393 Copy CRC 7548A393 Accurately ripped (confidence 4) [A8EAC2C9] (AR v2) Copy OK

Track 26

Filename C:\EAC\26 - London Symphony Orchestra - This Is Who You Are.wav

Peak level 99.8 % Extraction speed 2.2 X Track quality 100.0 % Test CRC E26D0AD1 Copy CRC E26D0AD1 Accurately ripped (confidence 4) [A013E3E4] (AR v2) Copy OK

Track 27

Filename C:\EAC\27 - Tomoya Ohtani - Up To The Challenge.wav

Peak level 99.7 % Extraction speed 1.6 X Track quality 100.0 % Test CRC DEEB43FE Copy CRC DEEB43FE Accurately ripped (confidence 4) [7527178D] (AR v2) Copy OK

Track 28

Filename C:\EAC\28 - London Symphony Orchestra - Mission Failed.wav

Peak level 99.8 % Extraction speed 0.4 X Track quality 99.2 % Test CRC 55D42B72 Copy CRC 55D42B72 Accurately ripped (confidence 4) [20553643] (AR v2) Copy OK

Track 29

Filename C:\EAC\29 - Tomoya Ohtani - Fist Bump - Instrumental ver..wav

Peak level 99.9 % Extraction speed 1.9 X Track quality 100.0 % Test CRC 77E8B5A9 Copy CRC 77E8B5A9 Accurately ripped (confidence 4) [C52AC7FA] (AR v2) Copy OK

Track 30

Filename C:\EAC\30 - Koji Igarashi - Fist Bump - Piano ver..wav

Peak level 99.7 % Extraction speed 2.4 X Track quality 100.0 % Test CRC AACA9A51 Copy CRC AACA9A51 Accurately ripped (confidence 4) [A776983F] (AR v2) Copy OK

All tracks accurately ripped

No errors occurred

End of status report

---- CUETools DB Plugin V2.1.6

[CTDB TOCID: bzjxdEX59qBOmWn4JgnKR1SwfTE-] foundSubmit result: bzjxdEX59qBOmWn4JgnKR1SwfTE- has been confirmedTrack | CTDB Status 1 | (19/19) Accurately ripped 2 | (19/19) Accurately ripped 3 | (19/19) Accurately ripped 4 | (19/19) Accurately ripped 5 | (19/19) Accurately ripped 6 | (19/19) Accurately ripped 7 | (19/19) Accurately ripped 8 | (19/19) Accurately ripped 9 | (19/19) Accurately ripped 10 | (19/19) Accurately ripped 11 | (19/19) Accurately ripped 12 | (19/19) Accurately ripped 13 | (19/19) Accurately ripped 14 | (19/19) Accurately ripped 15 | (19/19) Accurately ripped 16 | (19/19) Accurately ripped 17 | (19/19) Accurately ripped 18 | (19/19) Accurately ripped 19 | (19/19) Accurately ripped 20 | (19/19) Accurately ripped 21 | (19/19) Accurately ripped 22 | (19/19) Accurately ripped 23 | (19/19) Accurately ripped 24 | (19/19) Accurately ripped 25 | (19/19) Accurately ripped 26 | (19/19) Accurately ripped 27 | (19/19) Accurately ripped 28 | (19/19) Accurately ripped 29 | (19/19) Accurately ripped 30 | (19/19) Accurately ripped

==== Log checksum E031B46C829E6CBB808FFCA4CACFC117EEE5F56889638EC892314CA32885749A ====
REM GENRE SoundtrackREM DATE 2017REM DISCID AC0F6C1EREM COMMENT "ExactAudioCopy v1.3"CATALOG 4571164384085PERFORMER "Various Artists"TITLE "Sonic Forces Original Soundtrack [A Hero Will Rise]"REM COMPOSER ""FILE "01 - Douglas Robb from Hoobastank - Fist Bump.wav" WAVE TRACK 01 AUDIO TITLE "Fist Bump" PERFORMER "Douglas Robb from Hoobastank" REM COMPOSER "Tomoya Ohtani" ISRC JPX301712060 INDEX 01 00:00:00FILE "02 - London Symphony Orchestra - Theme of the Resistance - Title Screen ver..wav" WAVE TRACK 02 AUDIO TITLE "Theme of the Resistance - Title Screen ver." PERFORMER "London Symphony Orchestra" REM COMPOSER "Tomoya Ohtani & Takahito Eguchi" ISRC JPX301712070 INDEX 01 00:00:00FILE "03 - Takahito Eguchi - Cutscene - Quickening of Evil.wav" WAVE TRACK 03 AUDIO TITLE "Cutscene - Quickening of Evil" PERFORMER "Takahito Eguchi" REM COMPOSER "" ISRC JPX301712080 INDEX 01 00:00:00FILE "04 - Tomoya Ohtani - Lost Valley.wav" WAVE TRACK 04 AUDIO TITLE "Lost Valley" PERFORMER "Tomoya Ohtani" REM COMPOSER "" ISRC JPX301712090 FLAGS DCP INDEX 01 00:00:00FILE "05 - London Symphony Orchestra - Cutscene - A Hero Falls.wav" WAVE TRACK 05 AUDIO TITLE "Cutscene - A Hero Falls" PERFORMER "London Symphony Orchestra" REM COMPOSER "Takahito Eguchi" ISRC JPX301712100 INDEX 01 00:00:00FILE "06 - London Symphony Orchestra - Theme of the Resistance.wav" WAVE TRACK 06 AUDIO TITLE "Theme of the Resistance" PERFORMER "London Symphony Orchestra" REM COMPOSER "Tomoya Ohtani & Takahito Eguchi" ISRC JPX301712110 INDEX 01 00:00:00FILE "07 - London Symphony Orchestra - This Is Our World - A New Hero.wav" WAVE TRACK 07 AUDIO TITLE "This Is Our World - A New Hero" PERFORMER "London Symphony Orchestra" REM COMPOSER "Tomoya Ohtani" ISRC JPX301712120 INDEX 01 00:00:00FILE "08 - Tomoya Ohtani feat. Jon Underdown - Fighting Onward - Space Port.wav" WAVE TRACK 08 AUDIO TITLE "Fighting Onward - Space Port" PERFORMER "Tomoya Ohtani feat. Jon Underdown" REM COMPOSER "" ISRC JPX301712130 INDEX 01 00:00:00FILE "09 - Kenichi Tokoi - Action on the Rails.wav" WAVE TRACK 09 AUDIO TITLE "Action on the Rails" PERFORMER "Kenichi Tokoi" REM COMPOSER "" ISRC JPX301712140 INDEX 01 00:00:00FILE "10 - Takahito Eguchi - Cutscene - It's Good to See a Sonic.wav" WAVE TRACK 10 AUDIO TITLE "Cutscene - It's Good to See a Sonic" PERFORMER "Takahito Eguchi" REM COMPOSER "" ISRC JPX301712150 INDEX 01 00:00:00FILE "11 - Naofumi Hataya - Ghost Town.wav" WAVE TRACK 11 AUDIO TITLE "Ghost Town" PERFORMER "Naofumi Hataya" REM COMPOSER "" ISRC JPX301712160 INDEX 01 00:00:00FILE "12 - Tomoya Ohtani - Unstoppable.wav" WAVE TRACK 12 AUDIO TITLE "Unstoppable" PERFORMER "Tomoya Ohtani" REM COMPOSER "" ISRC JPX301712170 INDEX 01 00:00:00FILE "13 - Takahito Eguchi - Cutscene - Frightful Reflection.wav" WAVE TRACK 13 AUDIO TITLE "Cutscene - Frightful Reflection" PERFORMER "Takahito Eguchi" REM COMPOSER "" ISRC JPX301712180 INDEX 01 00:00:00FILE "14 - Tomoya Ohtani feat. Madeleine Wood - Nowhere to Run - Prison Hall.wav" WAVE TRACK 14 AUDIO TITLE "Nowhere to Run - Prison Hall" PERFORMER "Tomoya Ohtani feat. Madeleine Wood" REM COMPOSER "" ISRC JPX301712180 INDEX 01 00:00:00FILE "15 - Takahito Eguchi - Cutscene - Zavok Appears.wav" WAVE TRACK 15 AUDIO TITLE "Cutscene - Zavok Appears" PERFORMER "Takahito Eguchi" REM COMPOSER "" ISRC JPX301712200 INDEX 01 00:00:00FILE "16 - Kenichi Tokoi - Battle with Death Queen [Battle with Zavok Remix].wav" WAVE TRACK 16 AUDIO TITLE "Battle with Death Queen [Battle with Zavok Remix]" PERFORMER "Kenichi Tokoi" REM COMPOSER "" ISRC JPX301712210 INDEX 01 00:00:00 TRACK 17 AUDIO TITLE "Egg Gate" PERFORMER "Tomoya Ohtani" REM COMPOSER "" ISRC JPX301712220 INDEX 00 03:53:40FILE "17 - Tomoya Ohtani - Egg Gate.wav" WAVE INDEX 01 00:00:00FILE "18 - Kenichi Tokoi - Danger in the Sky.wav" WAVE TRACK 18 AUDIO TITLE "Danger in the Sky" PERFORMER "Kenichi Tokoi" REM COMPOSER "" ISRC JPX301712230 INDEX 01 00:00:00FILE "19 - Tomoya Ohtani - Arsenal Pyramid.wav" WAVE TRACK 19 AUDIO TITLE "Arsenal Pyramid" PERFORMER "Tomoya Ohtani" REM COMPOSER "" ISRC JPX301712240 INDEX 01 00:00:00FILE "20 - Tomoya Ohtani - Arsenal Pyramid - Interior.wav" WAVE TRACK 20 AUDIO TITLE "Arsenal Pyramid - Interior" PERFORMER "Tomoya Ohtani" REM COMPOSER "" ISRC JPX301712250 INDEX 01 00:00:00FILE "21 - Tomoya Ohtani - Double Boost!.wav" WAVE TRACK 21 AUDIO TITLE "Double Boost!" PERFORMER "Tomoya Ohtani" REM COMPOSER "" ISRC JPX301712260 INDEX 01 00:00:00FILE "22 - Tomoya Ohtani - Luminous Forest.wav" WAVE TRACK 22 AUDIO TITLE "Luminous Forest" PERFORMER "Tomoya Ohtani" REM COMPOSER "" ISRC JPX301712270 INDEX 01 00:00:00FILE "23 - Kenichi Tokoi - Coiled to Strike.wav" WAVE TRACK 23 AUDIO TITLE "Coiled to Strike" PERFORMER "Kenichi Tokoi" REM COMPOSER "" ISRC JPX301712280 INDEX 01 00:00:00FILE "24 - London Symphony Orchestra - Taking It Back.wav" WAVE TRACK 24 AUDIO TITLE "Taking It Back" PERFORMER "London Symphony Orchestra" REM COMPOSER "Tomoya Ohtani" ISRC JPX301712280 INDEX 01 00:00:00FILE "25 - London Symphony Orchestra - This Is Our World - Phase 1.wav" WAVE TRACK 25 AUDIO TITLE "This Is Our World - Phase 1" PERFORMER "London Symphony Orchestra" REM COMPOSER "Tomoya Ohtani" ISRC JPX301712300 INDEX 01 00:00:00FILE "26 - London Symphony Orchestra - This Is Who You Are.wav" WAVE TRACK 26 AUDIO TITLE "This Is Who You Are" PERFORMER "London Symphony Orchestra" REM COMPOSER "Tomoya Ohtani & Takahito Eguchi" ISRC JPX301712300 INDEX 01 00:00:00FILE "27 - Tomoya Ohtani - Up To The Challenge.wav" WAVE TRACK 27 AUDIO TITLE "Up To The Challenge" PERFORMER "Tomoya Ohtani" REM COMPOSER "" ISRC JPX301712320 INDEX 01 00:00:00FILE "28 - London Symphony Orchestra - Mission Failed.wav" WAVE TRACK 28 AUDIO TITLE "Mission Failed" PERFORMER "London Symphony Orchestra" REM COMPOSER "Tomoya Ohtani" ISRC JPX301712330 INDEX 01 00:00:00FILE "29 - Tomoya Ohtani - Fist Bump - Instrumental ver..wav" WAVE TRACK 29 AUDIO TITLE "Fist Bump - Instrumental ver." PERFORMER "Tomoya Ohtani" REM COMPOSER "" ISRC JPX301712330 INDEX 01 00:00:00FILE "30 - Koji Igarashi - Fist Bump - Piano ver..wav" WAVE TRACK 30 AUDIO TITLE "Fist Bump - Piano ver." PERFORMER "Koji Igarashi" REM COMPOSER "Tomoya Ohtani" ISRC JPX301712350 INDEX 01 00:00:00
-----------------------

DON'T MODIFY THIS FILE

-----------------------

PERFORMER: auCDtect Task Manager, ver. 1.6.0 RC1 build 1.6.0.1Copyright (c) 2008-2010 y-soft. All rights reservedhttp://y-soft.org

ANALYZER: auCDtect: CD records authenticity detector, version 0.8.2Copyright (c) 2004 Oleg Berngardt. All rights reserved.Copyright (c) 2004 Alexander Djourik. All rights reserved.

FILE: 30 - Koji Igarashi - Fist Bump - Piano ver..flac Size: 22262062 Hash: 9C3F8465BD9F375400BEDD212479C205 Accuracy: -m0 Conclusion: CDDA 100% Signature: BBF01AFF55E7AB9F5623650C114B8F113A9C1CF0FILE: 29 - Tomoya Ohtani - Fist Bump - Instrumental ver..flac Size: 14692612 Hash: EDE20C8E85C40F65CEAFB0E564EA9496 Accuracy: -m0 Conclusion: CDDA 100% Signature: 547B8F36033D3627F7385442572D9A5144206F53FILE: 28 - London Symphony Orchestra - Mission Failed.flac Size: 943586 Hash: DE71C95F20B17798BC03D63AA5CCB9AE Accuracy: -m0 Conclusion: CDDA 100% Signature: F8D8FD42AE27266DA46EFAFA5BBB3E11C2CD8749FILE: 27 - Tomoya Ohtani - Up To The Challenge.flac Size: 6840504 Hash: C29A4E466FDCDDBFAFAC86DF1331BBC7 Accuracy: -m0 Conclusion: CDDA 100% Signature: FDD12B42A32B4C69564E85AA1D64BA76F5A578E7FILE: 26 - London Symphony Orchestra - This Is Who You Are.flac Size: 29395000 Hash: FF707FF0E5A94AA77B43430B078CEDA5 Accuracy: -m0 Conclusion: CDDA 100% Signature: A49C4DAEAB1FB2F74A950A603D5E3C1F0C34FBFDFILE: 25 - London Symphony Orchestra - This Is Our World - Phase 1.flac Size: 14870264 Hash: AC3C691A0865C9B31EA3A634CE619003 Accuracy: -m0 Conclusion: CDDA 100% Signature: 8725EBDE825EBA6F6B3F3CFEEA7783917F02B806FILE: 24 - London Symphony Orchestra - Taking It Back.flac Size: 8206651 Hash: 28E4B9E9981C8146CCAFA01C793AF2E0 Accuracy: -m0 Conclusion: CDDA 100% Signature: 6ED1924022A996FE29850507D08E73E2BED7FFF8FILE: 23 - Kenichi Tokoi - Coiled to Strike.flac Size: 3453014 Hash: 3030BEBBFBBE838BD6BFE46DCECF49FC Accuracy: -m0 Conclusion: CDDA 100% Signature: 5BF8BBEC1AC8813504DE11E94A4A4F93C676130AFILE: 22 - Tomoya Ohtani - Luminous Forest.flac Size: 25337304 Hash: D6E234D15E7F283881DDA82BAE90DD3F Accuracy: -m0 Conclusion: CDDA 100% Signature: FC419A68BB4FF71CDEAB86C571E0975D3FE12EB6FILE: 21 - Tomoya Ohtani - Double Boost!.flac Size: 4710383 Hash: 5F8210589D07EB649A9AEEE61FE10B70 Accuracy: -m0 Conclusion: CDDA 100% Signature: 98AA73D4993643DB204B536CCFEC06732557FC1BFILE: 20 - Tomoya Ohtani - Arsenal Pyramid - Interior.flac Size: 20039839 Hash: 36EC28EF91CC2CBB6BCC107EF596860E Accuracy: -m0 Conclusion: CDDA 99% Signature: D5452CD8A6BC57AB4D76E794289E42D34C149A6AFILE: 19 - Tomoya Ohtani - Arsenal Pyramid.flac Size: 22378620 Hash: AB4204C3CA1214E1F4913C8D96FFCA0B Accuracy: -m0 Conclusion: CDDA 100% Signature: 823DE44DC70A2A6B1A0B69B0940C81BE0002A5C8FILE: 18 - Kenichi Tokoi - Danger in the Sky.flac Size: 3871182 Hash: E42203C35B8AFA94D4C47A39A737B421 Accuracy: -m0 Conclusion: CDDA 100% Signature: 1E3CB307C210EFCBA14124A8E79362F6CC66DB73FILE: 17 - Tomoya Ohtani - Egg Gate.flac Size: 23727868 Hash: CC8FFA5F67C3644422714A5514322DCF Accuracy: -m0 Conclusion: CDDA 100% Signature: EA5792DC4BF77F411AAB178EC8403EF0C66CA745FILE: 16 - Kenichi Tokoi - Battle with Death Queen [Battle with Zavok Remix].flac Size: 29867395 Hash: 1516A19F7F9CF7C69013A10A2EC7DD72 Accuracy: -m0 Conclusion: CDDA 100% Signature: 38AE446B3BCAC141DAD263C106B1B54B473CBFECFILE: 15 - Takahito Eguchi - Cutscene - Zavok Appears.flac Size: 2838437 Hash: 46FE8B5858D95A64A0510888DAE5819E Accuracy: -m0 Conclusion: CDDA 100% Signature: A79EAD96286E8E9F346D634DE9CCB845339AF685FILE: 14 - Tomoya Ohtani feat. Madeleine Wood - Nowhere to Run - Prison Hall.flac Size: 34454255 Hash: 8E2282EF05905FAE3B9D192A28462CD7 Accuracy: -m0 Conclusion: CDDA 100% Signature: DE4D439C3CB82F248319CC6BFDDE52B4FC8E8D90FILE: 13 - Takahito Eguchi - Cutscene - Frightful Reflection.flac Size: 2969152 Hash: 43D6E8A85C311CFA45D097DC06D7E407 Accuracy: -m0 Conclusion: CDDA 100% Signature: 2B872F291CB1F67F8C40515A2147FA1206DC6045FILE: 12 - Tomoya Ohtani - Unstoppable.flac Size: 3966947 Hash: D0F380DC54251D6EC8EACE555B6CA103 Accuracy: -m0 Conclusion: CDDA 100% Signature: 727F653776D411DC9245EFC6E506AD72E26DEE91FILE: 11 - Naofumi Hataya - Ghost Town.flac Size: 20725032 Hash: 557FCC51A13D8D04810A34DFE9126D64 Accuracy: -m0 Conclusion: CDDA 99% Signature: 186445E2650B8F3D709F72536E686DA568C4FF9FFILE: 10 - Takahito Eguchi - Cutscene - It's Good to See a Sonic.flac Size: 6941261 Hash: 3473DC94D2EC5C7D6121F2D23AC2C0DC Accuracy: -m0 Conclusion: CDDA 100% Signature: A86C37EFD1C2C22C090F92EC01A47673F11EAEC9FILE: 09 - Kenichi Tokoi - Action on the Rails.flac Size: 3288029 Hash: 80354D5E0D1CDFE4E8E5AA9BA2E906D0 Accuracy: -m0 Conclusion: CDDA 100% Signature: B31C15A274AA1641260C5675FA3B2D3D9D5A0FE9FILE: 08 - Tomoya Ohtani feat. Jon Underdown - Fighting Onward - Space Port.flac Size: 40040945 Hash: 52F061C8DCA622BE8CC4376789E28656 Accuracy: -m0 Conclusion: CDDA 100% Signature: 4F77A5EF678196E5F313159E1202B5791A6816C3FILE: 07 - London Symphony Orchestra - This Is Our World - A New Hero.flac Size: 12476881 Hash: 9C9DF0A65EF089499B7924F41C1018DE Accuracy: -m0 Conclusion: CDDA 100% Signature: 7E330F86F753A072B9425D394B46D82F4AFAEED6FILE: 06 - London Symphony Orchestra - Theme of the Resistance.flac Size: 11767215 Hash: 3944B1DCB871898CDEB92C8401C4E0E7 Accuracy: -m0 Conclusion: CDDA 100% Signature: 18D8911B139A4BD36FC0019A473E6F8CE8269A2DFILE: 05 - London Symphony Orchestra - Cutscene - A Hero Falls.flac Size: 9200140 Hash: F74B8493DAC50E2881F0C3631A4FEBFD Accuracy: -m0 Conclusion: CDDA 100% Signature: D9726ECE8C7874F9BE42367948D2AD6A5D09565FFILE: 04 - Tomoya Ohtani - Lost Valley.flac Size: 20897317 Hash: 7965CE716F1F676521C3EDCA72757DA0 Accuracy: -m0 Conclusion: CDDA 100% Signature: 7E200F763C3DE3865345B4AC8755C6409F4162F8FILE: 03 - Takahito Eguchi - Cutscene - Quickening of Evil.flac Size: 3903330 Hash: F51CE4E3E026B21A8957C315E3784B04 Accuracy: -m0 Conclusion: CDDA 100% Signature: 1553A750CCD1F1F03F9A9A9BFDE8DD6118CCD412FILE: 02 - London Symphony Orchestra - Theme of the Resistance - Title Screen ver..flac Size: 9176481 Hash: BADD589F54E3248086CC0DAE8937CB42 Accuracy: -m0 Conclusion: CDDA 100% Signature: B7A1B2F979E2641663DAF409F1AAF63483E1F342FILE: 01 - Douglas Robb from Hoobastank - Fist Bump.flac Size: 35551045 Hash: B4B8B9E1B643984685E40D9986302B72 Accuracy: -m0 Conclusion: CDDA 99% Signature: 661412389E030DB01F7AD7D9CC425F7AA2BCFAA3
</div>
</div>
Треклист:
01. Tyler Smyth & Andy Bane – Infinite (04:35)
02. London Symphony Orchestra – Cutscene - You May Call Me ”Infinite” (02:48)
03. Tomoya Ohtani – Battle with Infinite - First Bout (03:31)
04. Tomoya Ohtani – Faded Hills - Green Hill (02:47)
05. Naofumi Hataya – Battle with Egg Dragoon Mk. II (03:22)
06. Takahito Eguchi – Cutscene - The Phantom Ruby ~ Evil Deed (01:53)
07. Tomoya Ohtani – Justice - Park Avenue (feat. Claudia Vazquez & B-BANDJ) (04:17)
08. Tomoya Ohtani – Casino Forest (02:41)
09. Tomoya Ohtani – Moonlight Battlefield - Aqua Road (feat. nana hatori) (04:28)
10. Tomoya Ohtani – Sunset Heights (03:26)
11. Jun Senoue – Cutscene - The Fake (00:22)
12. Tomoya Ohtani – Virtual Enemies - Capital City (feat. Jon Underdown) (03:43)
13. Takahito Eguchi – Cutscene - This Is Your Moment! (00:53)
14. Tomoya Ohtani – Battle with Infinite - Second Bout (03:03)
15. London Symphony Orchestra – Cutscene - Divine Intervention (00:53)
16. Tomoya Ohtani – Chemical Flow - Chemical Plant (02:43)
17. Tomoya Ohtani – Fist Bump - FM ver. (01:52)
18. Tomoya Ohtani – Red Gate Bridge (02:57)
19. Kenichi Tokoi – Mark II Locks On (00:31)
20. Kenichi Tokoi – Battle with Metal Sonic [US ver. Remix] (03:23)
21. Tomoya Ohtani – Double Boost! - Short ver. (00:17)
22. London Symphony Orchestra – This Is Our World - Phase 2 (02:44)
23. Tomoya Ohtani – Episode Shadow (01:26)
24. Tomoya Ohtani – Enemy Territory [Westopolis Remix] (04:05)
25. Tomoya Ohtani – Eggman's Facility [Rhythm and Balance Remix] (02:50)
26. Tomoya Ohtani – Virtual Reality [Supporting Me Remix] (03:39)
27. Takahito Eguchi – Cutscene - Infinite's Beginning (02:06)
28. Tomoya Ohtani – Fist Bump - SXSW ver. (01:54)
<div class="sp-wrap">
<div class="sp-head folded">Лог создания рипа</div>
<div class="sp-body">

Exact Audio Copy V1.3 from 2. September 2016

EAC extraction logfile from 10. April 2018, 16:15

Various Artists / Sonic Forces Original Soundtrack [A Hero Will Rise]

Used drive : HL-DT-STBD-RE BE14NU40 Adapter: 1 ID: 1

Read mode : SecureUtilize accurate stream : YesDefeat audio cache : YesMake use of C2 pointers : No

Read offset correction : 6Overread into Lead-In and Lead-Out : NoFill up missing offset samples with silence : YesDelete leading and trailing silent blocks : NoNull samples used in CRC calculations : YesUsed interface : Native Win32 interface for Win NT & 2000Gap handling : Appended to previous track

Used output format : User Defined EncoderSelected bitrate : 896 kBit/sQuality : HighAdd ID3 tag : NoCommand line compressor : C:\Program Files\flac\win64\flac.exeAdditional command line options : -8 -e -p -V -T "ARTIST=%artist%" -T "TITLE=%title%" -T "ALBUM=%albumtitle%" -T "DATE=%year%" -T "TRACKNUMBER=%tracknr%" -T "GENRE=%genre%" -T "PERFORMER=%albuminterpret%" -T "COMPOSER=%composer%" %haslyrics%--tag-from-file=LYRICS="%lyricsfile%"%haslyrics% -T "ALBUMARTIST=%albumartist%" -T "DISCNUMBER=%cdnumber%" -T "TOTALDISCS=%totalcds%" -T "TOTALTRACKS=%numtracks%" -T "COMMENT=%comment%" %source% -o %dest%

TOC of the extracted CD

Track | Start | Length | Start sector | End sector --------------------------------------------------------- 1 | 0:00.00 | 4:34.61 | 0 | 20610 2 | 4:34.61 | 2:48.10 | 20611 | 33220 3 | 7:22.71 | 3:30.58 | 33221 | 49028 4 | 10:53.54 | 2:47.17 | 49029 | 61570 5 | 13:40.71 | 3:21.68 | 61571 | 76713 6 | 17:02.64 | 1:52.57 | 76714 | 85170 7 | 18:55.46 | 4:17.03 | 85171 | 104448 8 | 23:12.49 | 2:41.17 | 104449 | 116540 9 | 25:53.66 | 4:27.45 | 116541 | 136610 10 | 30:21.36 | 3:26.25 | 136611 | 152085 11 | 33:47.61 | 0:21.55 | 152086 | 153715 12 | 34:09.41 | 3:43.23 | 153716 | 170463 13 | 37:52.64 | 0:53.30 | 170464 | 174468 14 | 38:46.19 | 3:02.50 | 174469 | 188168 15 | 41:48.69 | 0:52.57 | 188169 | 192125 16 | 42:41.51 | 2:43.00 | 192126 | 204350 17 | 45:24.51 | 1:52.10 | 204351 | 212760 18 | 47:16.61 | 2:57.33 | 212761 | 226068 19 | 50:14.19 | 0:31.00 | 226069 | 228393 20 | 50:45.19 | 3:23.12 | 228394 | 243630 21 | 54:08.31 | 0:16.45 | 243631 | 244875 22 | 54:25.01 | 2:43.63 | 244876 | 257163 23 | 57:08.64 | 1:26.32 | 257164 | 263645 24 | 58:35.21 | 4:05.20 | 263646 | 282040 25 | 62:40.41 | 2:49.40 | 282041 | 294755 26 | 65:30.06 | 3:38.73 | 294756 | 311178 27 | 69:09.04 | 2:05.62 | 311179 | 320615 28 | 71:14.66 | 1:53.48 | 320616 | 329138

Track 1

Filename C:\EAC\01 - Tyler Smyth & Andy Bane from Dangerkids - Infinite.wav

Pre-gap length 0:00:02.00

Peak level 97.8 % Extraction speed 1.4 X Track quality 100.0 % Test CRC B3DA9F54 Copy CRC B3DA9F54 Accurately ripped (confidence 4) [34598CFF] (AR v2) Copy OK

Track 2

Filename C:\EAC\02 - London Symphony Orchestra - Cutscene - You May Call Me ”Infinite”.wav

Pre-gap length 0:00:03.00

Peak level 99.9 % Extraction speed 1.2 X Track quality 100.0 % Test CRC 959CFE16 Copy CRC 959CFE16 Accurately ripped (confidence 4) [094C0198] (AR v2) Copy OK

Track 3

Filename C:\EAC\03 - Tomoya Ohtani - Battle with Infinite - First Bout.wav

Pre-gap length 0:00:01.00

Peak level 99.9 % Extraction speed 1.3 X Track quality 100.0 % Test CRC 0173548A Copy CRC 0173548A Accurately ripped (confidence 4) [14CD2541] (AR v2) Copy OK

Track 4

Filename C:\EAC\04 - Tomoya Ohtani - Faded Hills - Green Hill.wav

Pre-gap length 0:00:03.00

Peak level 99.9 % Extraction speed 1.4 X Track quality 100.0 % Test CRC E04DC67E Copy CRC E04DC67E Accurately ripped (confidence 4) [DD1BEB3A] (AR v2) Copy OK

Track 5

Filename C:\EAC\05 - Naofumi Hataya - Battle with Egg Dragoon Mk. II.wav

Pre-gap length 0:00:03.00

Peak level 99.9 % Extraction speed 1.5 X Track quality 100.0 % Test CRC 4841EA49 Copy CRC 4841EA49 Accurately ripped (confidence 4) [B11160BA] (AR v2) Copy OK

Track 6

Filename C:\EAC\06 - Takahito Eguchi - Cutscene - The Phantom Ruby ~ Evil Deed.wav

Pre-gap length 0:00:03.00

Peak level 99.8 % Extraction speed 1.3 X Track quality 100.0 % Test CRC F70D4280 Copy CRC F70D4280 Accurately ripped (confidence 4) [33501DA2] (AR v2) Copy OK

Track 7

Filename C:\EAC\07 - Tomoya Ohtani feat. Claudia Vazquez & B-BANDJ - Justice - Park Avenue.wav

Pre-gap length 0:00:02.00

Peak level 99.9 % Extraction speed 1.6 X Track quality 100.0 % Test CRC 9C8F3421 Copy CRC 9C8F3421 Accurately ripped (confidence 4) [FC68E5FA] (AR v2) Copy OK

Track 8

Filename C:\EAC\08 - Tomoya Ohtani - Casino Forest.wav

Pre-gap length 0:00:03.00

Peak level 99.9 % Extraction speed 1.6 X Track quality 100.0 % Test CRC CA0F57AB Copy CRC CA0F57AB Accurately ripped (confidence 4) [AC6420E7] (AR v2) Copy OK

Track 9

Filename C:\EAC\09 - Tomoya Ohtani feat. nana hatori - Moonlight Battlefield - Aqua Road.wav

Pre-gap length 0:00:02.00

Peak level 99.9 % Extraction speed 1.6 X Track quality 99.9 % Test CRC 86487BE5 Copy CRC 86487BE5 Accurately ripped (confidence 4) [FBC6BDE4] (AR v2) Copy OK

Track 10

Filename C:\EAC\10 - Tomoya Ohtani - Sunset Heights.wav

Pre-gap length 0:00:02.00

Peak level 99.9 % Extraction speed 1.8 X Track quality 100.0 % Test CRC DCD22972 Copy CRC DCD22972 Accurately ripped (confidence 4) [8CB1C364] (AR v2) Copy OK

Track 11

Filename C:\EAC\11 - Jun Senoue - Cutscene - The Fake.wav

Pre-gap length 0:00:01.00

Peak level 99.9 % Extraction speed 0.8 X Track quality 100.0 % Test CRC 36F0F9D4 Copy CRC 36F0F9D4 Accurately ripped (confidence 4) [5DEA94DC] (AR v2) Copy OK

Track 12

Filename C:\EAC\12 - Tomoya Ohtani feat. Jon Underdown - Virtual Enemies - Capital City.wav

Pre-gap length 0:00:03.00

Peak level 99.9 % Extraction speed 1.9 X Track quality 100.0 % Test CRC B1D0D01A Copy CRC B1D0D01A Accurately ripped (confidence 4) [47485D4B] (AR v2) Copy OK

Track 13

Filename C:\EAC\13 - Takahito Eguchi - Cutscene - This Is Your Moment!.wav

Pre-gap length 0:00:03.00

Peak level 99.8 % Extraction speed 1.3 X Track quality 100.0 % Test CRC C490BF3F Copy CRC C490BF3F Accurately ripped (confidence 4) [18E3F0FF] (AR v2) Copy OK

Track 14

Filename C:\EAC\14 - Tomoya Ohtani - Battle with Infinite - Second Bout.wav

Pre-gap length 0:00:03.00

Peak level 99.9 % Extraction speed 1.9 X Track quality 100.0 % Test CRC 3558C85B Copy CRC 3558C85B Accurately ripped (confidence 4) [91655E8C] (AR v2) Copy OK

Track 15

Filename C:\EAC\15 - London Symphony Orchestra - Cutscene - Divine Intervention.wav

Pre-gap length 0:00:02.00

Peak level 99.8 % Extraction speed 0.9 X Track quality 99.7 % Test CRC 2BEEBC07 Copy CRC 2BEEBC07 Accurately ripped (confidence 4) [D732CCDA] (AR v2) Copy OK

Track 16

Filename C:\EAC\16 - Tomoya Ohtani - Chemical Flow - Chemical Plant.wav

Pre-gap length 0:00:02.00

Peak level 99.9 % Extraction speed 1.6 X Track quality 99.9 % Test CRC 44A9A1D3 Copy CRC 44A9A1D3 Accurately ripped (confidence 4) [DC9F0F78] (AR v2) Copy OK

Track 17

Filename C:\EAC\17 - Tomoya Ohtani - Fist Bump - FM ver..wav

Pre-gap length 0:00:03.00

Peak level 99.9 % Extraction speed 1.8 X Track quality 100.0 % Test CRC C69C7024 Copy CRC C69C7024 Accurately ripped (confidence 4) [9B8B5DD2] (AR v2) Copy OK

Track 18

Filename C:\EAC\18 - Tomoya Ohtani - Red Gate Bridge.wav

Pre-gap length 0:00:02.62

Peak level 99.9 % Extraction speed 2.0 X Track quality 100.0 % Test CRC CAE06837 Copy CRC CAE06837 Accurately ripped (confidence 4) [800A63AA] (AR v2) Copy OK

Track 19

Filename C:\EAC\19 - Kenichi Tokoi - Mark II Locks On.wav

Pre-gap length 0:00:02.00

Peak level 99.9 % Extraction speed 1.1 X Track quality 100.0 % Test CRC 198E3CA1 Copy CRC 198E3CA1 Accurately ripped (confidence 4) [57C459A6] (AR v2) Copy OK

Track 20

Filename C:\EAC\20 - Kenichi Tokoi - Battle with Metal Sonic [US ver. Remix].wav

Pre-gap length 0:00:02.00

Peak level 98.8 % Extraction speed 1.8 X Track quality 99.9 % Test CRC 087E37B5 Copy CRC 087E37B5 Accurately ripped (confidence 4) [FC236609] (AR v2) Copy OK

Track 21

Filename C:\EAC\21 - Tomoya Ohtani - Double Boost! - Short ver..wav

Pre-gap length 0:00:02.00

Peak level 99.8 % Extraction speed 0.4 X Track quality 99.3 % Test CRC B1106D15 Copy CRC B1106D15 Accurately ripped (confidence 4) [3686BFCC] (AR v2) Copy OK

Track 22

Filename C:\EAC\22 - London Symphony Orchestra - This Is Our World - Phase 2.wav

Pre-gap length 0:00:03.00

Peak level 99.8 % Extraction speed 2.1 X Track quality 100.0 % Test CRC F2B1D9B8 Copy CRC F2B1D9B8 Accurately ripped (confidence 4) [B2787804] (AR v2) Copy OK

Track 23

Filename C:\EAC\23 - Tomoya Ohtani - Episode Shadow.wav

Pre-gap length 0:00:03.00

Peak level 99.7 % Extraction speed 1.9 X Track quality 100.0 % Test CRC 36BF35D2 Copy CRC 36BF35D2 Accurately ripped (confidence 4) [5F91A7E8] (AR v2) Copy OK

Track 24

Filename C:\EAC\24 - Tomoya Ohtani - Enemy Territory [Westopolis Remix].wav

Pre-gap length 0:00:03.00

Peak level 99.7 % Extraction speed 2.3 X Track quality 100.0 % Test CRC CAF63B36 Copy CRC CAF63B36 Accurately ripped (confidence 4) [81B5214B] (AR v2) Copy OK

Track 25

Filename C:\EAC\25 - Tomoya Ohtani - Eggman's Facility [Rhythm and Balance Remix].wav

Pre-gap length 0:00:03.00

Peak level 96.3 % Extraction speed 2.3 X Track quality 100.0 % Test CRC B2544644 Copy CRC B2544644 Accurately ripped (confidence 4) [B061A69A] (AR v2) Copy OK

Track 26

Filename C:\EAC\26 - Tomoya Ohtani - Virtual Reality [Supporting Me Remix].wav

Pre-gap length 0:00:02.00

Peak level 96.6 % Extraction speed 2.4 X Track quality 100.0 % Test CRC AB96BEDF Copy CRC AB96BEDF Accurately ripped (confidence 4) [F2D2A0C5] (AR v2) Copy OK

Track 27

Filename C:\EAC\27 - Takahito Eguchi - Cutscene - Infinite's Beginning.wav

Pre-gap length 0:00:04.00

Peak level 96.4 % Extraction speed 1.7 X Track quality 99.9 % Test CRC 4F356579 Copy CRC 4F356579 Accurately ripped (confidence 4) [D7710444] (AR v2) Copy OK

Track 28

Filename C:\EAC\28 - Tomoya Ohtani - Fist Bump - SXSW ver..wav

Pre-gap length 0:00:03.00

Peak level 90.1 % Extraction speed 2.1 X Track quality 100.0 % Test CRC 076BFFD8 Copy CRC 076BFFD8 Accurately ripped (confidence 4) [8E1058BF] (AR v2) Copy OK

All tracks accurately ripped

No errors occurred

End of status report

---- CUETools DB Plugin V2.1.6

[CTDB TOCID: lA9Y.9z8Tqv1lorIf6rpSVg5.Mc-] foundSubmit result: lA9Y.9z8Tqv1lorIf6rpSVg5.Mc- has been confirmedTrack | CTDB Status 1 | (18/18) Accurately ripped 2 | (18/18) Accurately ripped 3 | (18/18) Accurately ripped 4 | (18/18) Accurately ripped 5 | (18/18) Accurately ripped 6 | (18/18) Accurately ripped 7 | (18/18) Accurately ripped 8 | (18/18) Accurately ripped 9 | (18/18) Accurately ripped 10 | (18/18) Accurately ripped 11 | (18/18) Accurately ripped 12 | (18/18) Accurately ripped 13 | (18/18) Accurately ripped 14 | (18/18) Accurately ripped 15 | (18/18) Accurately ripped 16 | (18/18) Accurately ripped 17 | (18/18) Accurately ripped 18 | (18/18) Accurately ripped 19 | (18/18) Accurately ripped 20 | (18/18) Accurately ripped 21 | (18/18) Accurately ripped 22 | (18/18) Accurately ripped 23 | (18/18) Accurately ripped 24 | (18/18) Accurately ripped 25 | (18/18) Accurately ripped 26 | (18/18) Accurately ripped 27 | (18/18) Accurately ripped 28 | (18/18) Accurately ripped

==== Log checksum 8979F9E0A7CB0C596E258804BFC798B9B478357FE63BFDEFE78D34D2673396DA ====
REM GENRE SoundtrackREM DATE 2017REM DISCID 7C11241CREM COMMENT "ExactAudioCopy v1.3"CATALOG 4571164384085PERFORMER "Various Artists"TITLE "Sonic Forces Original Soundtrack [A Hero Will Rise]"REM COMPOSER ""FILE "01 - Tyler Smyth & Andy Bane from Dangerkids - Infinite.wav" WAVE TRACK 01 AUDIO TITLE "Infinite" PERFORMER "Tyler Smyth & Andy Bane from Dangerkids" REM COMPOSER "" ISRC JPX301712360 INDEX 01 00:00:00 TRACK 02 AUDIO TITLE "Cutscene - You May Call Me ”Infinite”" PERFORMER "London Symphony Orchestra" REM COMPOSER "" ISRC JPX301712370 INDEX 00 04:31:61FILE "02 - London Symphony Orchestra - Cutscene - You May Call Me ”Infinite”.wav" WAVE INDEX 01 00:00:00 TRACK 03 AUDIO TITLE "Battle with Infinite - First Bout" PERFORMER "Tomoya Ohtani" REM COMPOSER "" ISRC JPX301701280 INDEX 00 02:47:10FILE "03 - Tomoya Ohtani - Battle with Infinite - First Bout.wav" WAVE INDEX 01 00:00:00 TRACK 04 AUDIO TITLE "Faded Hills - Green Hill" PERFORMER "Tomoya Ohtani" REM COMPOSER "" ISRC JPX301712390 INDEX 00 03:27:58FILE "04 - Tomoya Ohtani - Faded Hills - Green Hill.wav" WAVE INDEX 01 00:00:00 TRACK 05 AUDIO TITLE "Battle with Egg Dragoon Mk. II" PERFORMER "Naofumi Hataya" REM COMPOSER "" ISRC JPX301712400 INDEX 00 02:44:17FILE "05 - Naofumi Hataya - Battle with Egg Dragoon Mk. II.wav" WAVE INDEX 01 00:00:00 TRACK 06 AUDIO TITLE "Cutscene - The Phantom Ruby ~ Evil Deed" PERFORMER "Takahito Eguchi" REM COMPOSER "" ISRC JPX301712410 INDEX 00 03:18:68FILE "06 - Takahito Eguchi - Cutscene - The Phantom Ruby ~ Evil Deed.wav" WAVE INDEX 01 00:00:00 TRACK 07 AUDIO TITLE "Justice - Park Avenue" PERFORMER "Tomoya Ohtani feat. Claudia Vazquez & B-BANDJ" REM COMPOSER "" ISRC JPX301712420 INDEX 00 01:50:57FILE "07 - Tomoya Ohtani feat. Claudia Vazquez & B-BANDJ - Justice - Park Avenue.wav" WAVE INDEX 01 00:00:00 TRACK 08 AUDIO TITLE "Casino Forest" PERFORMER "Tomoya Ohtani" REM COMPOSER "" ISRC JPX301712430 INDEX 00 04:14:03FILE "08 - Tomoya Ohtani - Casino Forest.wav" WAVE INDEX 01 00:00:00 TRACK 09 AUDIO TITLE "Moonlight Battlefield - Aqua Road" PERFORMER "Tomoya Ohtani feat. nana hatori" REM COMPOSER "" ISRC JPX301712440 INDEX 00 02:39:17FILE "09 - Tomoya Ohtani feat. nana hatori - Moonlight Battlefield - Aqua Road.wav" WAVE INDEX 01 00:00:00 TRACK 10 AUDIO TITLE "Sunset Heights" PERFORMER "Tomoya Ohtani" REM COMPOSER "" ISRC JPX301712450 INDEX 00 04:25:45FILE "10 - Tomoya Ohtani - Sunset Heights.wav" WAVE INDEX 01 00:00:00 TRACK 11 AUDIO TITLE "Cutscene - The Fake" PERFORMER "Jun Senoue" REM COMPOSER "" ISRC JPX301712460 INDEX 00 03:25:25FILE "11 - Jun Senoue - Cutscene - The Fake.wav" WAVE INDEX 01 00:00:00 TRACK 12 AUDIO TITLE "Virtual Enemies - Capital City" PERFORMER "Tomoya Ohtani feat. Jon Underdown" REM COMPOSER "" ISRC JPX301712470 INDEX 00 00:18:55FILE "12 - Tomoya Ohtani feat. Jon Underdown - Virtual Enemies - Capital City.wav" WAVE INDEX 01 00:00:00 TRACK 13 AUDIO TITLE "Cutscene - This Is Your Moment!" PERFORMER "Takahito Eguchi" REM COMPOSER "" ISRC JPX301712480 INDEX 00 03:40:23FILE "13 - Takahito Eguchi - Cutscene - This Is Your Moment!.wav" WAVE INDEX 01 00:00:00 TRACK 14 AUDIO TITLE "Battle with Infinite - Second Bout" PERFORMER "Tomoya Ohtani" REM COMPOSER "" ISRC JPX301712490 INDEX 00 00:50:30FILE "14 - Tomoya Ohtani - Battle with Infinite - Second Bout.wav" WAVE INDEX 01 00:00:00 TRACK 15 AUDIO TITLE "Cutscene - Divine Intervention" PERFORMER "London Symphony Orchestra" REM COMPOSER "" ISRC JPX301712500 INDEX 00 03:00:50FILE "15 - London Symphony Orchestra - Cutscene - Divine Intervention.wav" WAVE INDEX 01 00:00:00 TRACK 16 AUDIO TITLE "Chemical Flow - Chemical Plant" PERFORMER "Tomoya Ohtani" REM COMPOSER "" ISRC JPX301712510 INDEX 00 00:50:57FILE "16 - Tomoya Ohtani - Chemical Flow - Chemical Plant.wav" WAVE INDEX 01 00:00:00 TRACK 17 AUDIO TITLE "Fist Bump - FM ver." PERFORMER "Tomoya Ohtani" REM COMPOSER "" ISRC JPX301712520 INDEX 00 02:40:00FILE "17 - Tomoya Ohtani - Fist Bump - FM ver..wav" WAVE INDEX 01 00:00:00 TRACK 18 AUDIO TITLE "Red Gate Bridge" PERFORMER "Tomoya Ohtani" REM COMPOSER "" ISRC JPX301712530 INDEX 00 01:49:23FILE "18 - Tomoya Ohtani - Red Gate Bridge.wav" WAVE INDEX 01 00:00:00 TRACK 19 AUDIO TITLE "Mark II Locks On" PERFORMER "Kenichi Tokoi" REM COMPOSER "" ISRC JPX301712540 INDEX 00 02:55:33FILE "19 - Kenichi Tokoi - Mark II Locks On.wav" WAVE INDEX 01 00:00:00 TRACK 20 AUDIO TITLE "Battle with Metal Sonic [US ver. Remix]" PERFORMER "Kenichi Tokoi" REM COMPOSER "" ISRC JPX301712550 INDEX 00 00:29:00FILE "20 - Kenichi Tokoi - Battle with Metal Sonic [US ver. Remix].wav" WAVE INDEX 01 00:00:00 TRACK 21 AUDIO TITLE "Double Boost! - Short ver." PERFORMER "Tomoya Ohtani" REM COMPOSER "" ISRC JPX301712560 INDEX 00 03:21:12FILE "21 - Tomoya Ohtani - Double Boost! - Short ver..wav" WAVE INDEX 01 00:00:00 TRACK 22 AUDIO TITLE "This Is Our World - Phase 2" PERFORMER "London Symphony Orchestra" REM COMPOSER "" ISRC JPX301712570 INDEX 00 00:13:45FILE "22 - London Symphony Orchestra - This Is Our World - Phase 2.wav" WAVE INDEX 01 00:00:00 TRACK 23 AUDIO TITLE "Episode Shadow" PERFORMER "Tomoya Ohtani" REM COMPOSER "" ISRC JPX301712580 INDEX 00 02:40:63FILE "23 - Tomoya Ohtani - Episode Shadow.wav" WAVE INDEX 01 00:00:00 TRACK 24 AUDIO TITLE "Enemy Territory [Westopolis Remix]" PERFORMER "Tomoya Ohtani" REM COMPOSER "" ISRC JPX301712590 INDEX 00 01:23:32FILE "24 - Tomoya Ohtani - Enemy Territory [Westopolis Remix].wav" WAVE INDEX 01 00:00:00 TRACK 25 AUDIO TITLE "Eggman's Facility [Rhythm and Balance Remix]" PERFORMER "Tomoya Ohtani" REM COMPOSER "" ISRC JPX301712600 INDEX 00 04:02:20FILE "25 - Tomoya Ohtani - Eggman's Facility [Rhythm and Balance Remix].wav" WAVE INDEX 01 00:00:00 TRACK 26 AUDIO TITLE "Virtual Reality [Supporting Me Remix]" PERFORMER "Tomoya Ohtani" REM COMPOSER "" ISRC JPX301712610 INDEX 00 02:47:40FILE "26 - Tomoya Ohtani - Virtual Reality [Supporting Me Remix].wav" WAVE INDEX 01 00:00:00 TRACK 27 AUDIO TITLE "Cutscene - Infinite's Beginning" PERFORMER "Takahito Eguchi" REM COMPOSER "" ISRC JPX301712620 INDEX 00 03:34:73FILE "27 - Takahito Eguchi - Cutscene - Infinite's Beginning.wav" WAVE INDEX 01 00:00:00 TRACK 28 AUDIO TITLE "Fist Bump - SXSW ver." PERFORMER "Tomoya Ohtani" REM COMPOSER "" ISRC JPX301712630 INDEX 00 02:02:62FILE "28 - Tomoya Ohtani - Fist Bump - SXSW ver..wav" WAVE INDEX 01 00:00:00
-----------------------

DON'T MODIFY THIS FILE

-----------------------

PERFORMER: auCDtect Task Manager, ver. 1.6.0 RC1 build 1.6.0.1Copyright (c) 2008-2010 y-soft. All rights reservedhttp://y-soft.org

ANALYZER: auCDtect: CD records authenticity detector, version 0.8.2Copyright (c) 2004 Oleg Berngardt. All rights reserved.Copyright (c) 2004 Alexander Djourik. All rights reserved.

FILE: 28 - Tomoya Ohtani - Fist Bump - SXSW ver..flac Size: 11005824 Hash: BD26960597953DE62C960FA6C1283243 Accuracy: -m0 Conclusion: CDDA 100% Signature: E34707F8A81BABCF97FCF65771EF0524C46AA4CAFILE: 27 - Takahito Eguchi - Cutscene - Infinite's Beginning.flac Size: 13107440 Hash: 0159F04E1337BD1F65AC1A0DE8F2292C Accuracy: -m0 Conclusion: CDDA 100% Signature: CA8546076725D4FB66F231E535DB6AA46A78DCA3FILE: 26 - Tomoya Ohtani - Virtual Reality [Supporting Me Remix].flac Size: 26187420 Hash: 431A3CCA1610C262BC9F7326A9BC0808 Accuracy: -m0 Conclusion: CDDA 100% Signature: 94F28F994C5AC310BFD705362E7DDC5AAB6DB8D6FILE: 25 - Tomoya Ohtani - Eggman's Facility [Rhythm and Balance Remix].flac Size: 21143007 Hash: EB32909FC61018265BE2A35153AA27D7 Accuracy: -m0 Conclusion: CDDA 100% Signature: B40A84ABCB0EBBB2E4568F543CE672AA14A12FECFILE: 24 - Tomoya Ohtani - Enemy Territory [Westopolis Remix].flac Size: 31855655 Hash: 6331180AF6AD0290706653CA36FFDD78 Accuracy: -m0 Conclusion: CDDA 100% Signature: 29599D9BD1B1878BEA47F5C5DAB3C7D6D5BCEB67FILE: 23 - Tomoya Ohtani - Episode Shadow.flac Size: 10317237 Hash: 54830D1527E4D9FFC97A4A855477D730 Accuracy: -m0 Conclusion: CDDA 100% Signature: E7B231AA6ABFF04F2C13B69CDDA326F1BD1DD66BFILE: 22 - London Symphony Orchestra - This Is Our World - Phase 2.flac Size: 17996753 Hash: 90908846740ED819F4D63268835D4FDB Accuracy: -m0 Conclusion: CDDA 100% Signature: A6F87CDB6FA3F3E5CA34BFABC3B16528FDE51C34FILE: 21 - Tomoya Ohtani - Double Boost! - Short ver..flac Size: 1221267 Hash: 985384EDC7B61E3933BBB4076F4B8264 Accuracy: -m0 Conclusion: CDDA 100% Signature: 2BD693BBF8A8CC10437260BF313CFF0BC5B224EEFILE: 20 - Kenichi Tokoi - Battle with Metal Sonic [US ver. Remix].flac Size: 28308718 Hash: 50B683727763CFE7BF1EAD0432A347F8 Accuracy: -m0 Conclusion: CDDA 100% Signature: 03575D7B3BD2F70E31B98E0145E4058F739F908AFILE: 19 - Kenichi Tokoi - Mark II Locks On.flac Size: 2908334 Hash: DC2783483B1B23AEA1E56A189F3A3087 Accuracy: -m0 Conclusion: CDDA 100% Signature: F88E09D84B4560B0A35D3398C610E25AF16FD271FILE: 18 - Tomoya Ohtani - Red Gate Bridge.flac Size: 23768747 Hash: 472128E09C6449C4CDA9C9F65DECC295 Accuracy: -m0 Conclusion: CDDA 100% Signature: 1084B9131999100C5F5F8DD28EBF05280096F509FILE: 17 - Tomoya Ohtani - Fist Bump - FM ver..flac Size: 12799804 Hash: A67C5DC59D60A397DB3C9BBB5F8FF080 Accuracy: -m0 Conclusion: CDDA 100% Signature: 82F2C53260062CFFAFADF72CF02D97B0819C711DFILE: 16 - Tomoya Ohtani - Chemical Flow - Chemical Plant.flac Size: 17018304 Hash: 5CA8E93FADD9D635BDA8E23873D6118C Accuracy: -m0 Conclusion: CDDA 100% Signature: C785BED0409E6F602A46059C9A73DB00008EF14BFILE: 15 - London Symphony Orchestra - Cutscene - Divine Intervention.flac Size: 5117243 Hash: 19CA973EAA130E2D8592A33F11193A51 Accuracy: -m0 Conclusion: CDDA 100% Signature: 6F7844E8BC627FF08B4DD971EFCAE2653253AB11FILE: 14 - Tomoya Ohtani - Battle with Infinite - Second Bout.flac Size: 23848063 Hash: FA2934790AEAF4369C4E4BFDD792B4AC Accuracy: -m0 Conclusion: CDDA 100% Signature: 44548359E0E27161C883C2B8DC269F17C9745E46FILE: 13 - Takahito Eguchi - Cutscene - This Is Your Moment!.flac Size: 4335382 Hash: 90F1ADDBC535EF7DC55831F300267E05 Accuracy: -m0 Conclusion: CDDA 100% Signature: B024A7AEDE2F27926298FF28C1D8813493EA4E06FILE: 12 - Tomoya Ohtani feat. Jon Underdown - Virtual Enemies - Capital City.flac Size: 31634350 Hash: DA3880F0843240448E6CEEFE5E3B4152 Accuracy: -m0 Conclusion: CDDA 100% Signature: FFCC75A0B4FB36FC926389A29676C77045C34E60FILE: 11 - Jun Senoue - Cutscene - The Fake.flac Size: 1502984 Hash: FF9A4C429A58EA2076C879F787D76AD5 Accuracy: -m0 Conclusion: CDDA 100% Signature: 0198447AD5FC30DB6C94021F4AD39FE402428FD8FILE: 10 - Tomoya Ohtani - Sunset Heights.flac Size: 27483850 Hash: A9EA19C1B8B0DFC616ECEEC1365C29DC Accuracy: -m0 Conclusion: CDDA 100% Signature: 94C65440D7E899483AF3259B2DDD6C3D36FD15E8FILE: 09 - Tomoya Ohtani feat. nana hatori - Moonlight Battlefield - Aqua Road.flac Size: 35695800 Hash: 2840CA9B4759B60581B3447AB3BFDAC0 Accuracy: -m0 Conclusion: CDDA 100% Signature: 8D5D5F62ED3D16C2E540887AA3A0437438947B44FILE: 08 - Tomoya Ohtani - Casino Forest.flac Size: 20083299 Hash: 26617B293EAAF8EEDFFFBDE7BC5F036B Accuracy: -m0 Conclusion: CDDA 100% Signature: A6E3B1EF7E54A1A3DB18A9B696C3931A00769623FILE: 07 - Tomoya Ohtani feat. Claudia Vazquez & B-BANDJ - Justice - Park Avenue.flac Size: 34969362 Hash: 070F70AD99F5A3BA3561B722C4834C8A Accuracy: -m0 Conclusion: CDDA 100% Signature: 74B37CD6B416A51980D1B406DECF6536A91B0A30FILE: 06 - Takahito Eguchi - Cutscene - The Phantom Ruby ~ Evil Deed.flac Size: 10743526 Hash: 8CD1CF8BBEF9ED2C418018E81A161E91 Accuracy: -m0 Conclusion: CDDA 100% Signature: 2EC4AF200DAC19A7500E910D41148F6842CBC249FILE: 05 - Naofumi Hataya - Battle with Egg Dragoon Mk. II.flac Size: 22641623 Hash: 62466EB6C237AD2FB7493D2B26088111 Accuracy: -m0 Conclusion: CDDA 100% Signature: 6B69002323C378A5902735A98395913BD1BC55F2FILE: 04 - Tomoya Ohtani - Faded Hills - Green Hill.flac Size: 22195058 Hash: 21467168ACEB8AB810084C5AE8A67125 Accuracy: -m0 Conclusion: CDDA 100% Signature: 28B041E596B44E669FE0E595589EEBE710661F09FILE: 03 - Tomoya Ohtani - Battle with Infinite - First Bout.flac Size: 27325281 Hash: 10B1D5150F03845B4D00D865A0B045AB Accuracy: -m0 Conclusion: CDDA 99% Signature: 6FA75A92DA7A1B4FB4883B5631F71F17BAF90943FILE: 02 - London Symphony Orchestra - Cutscene - You May Call Me ”Infinite”.flac Size: 16871802 Hash: 057FC8D3A10D1B7515549F37C16E7E79 Accuracy: -m0 Conclusion: CDDA 100% Signature: 0D60568582C26D82B21AA1ABDDF3128BE0AD524BFILE: 01 - Tyler Smyth & Andy Bane from Dangerkids - Infinite.flac Size: 37082826 Hash: 163EA496D058A59CF4F20144C0D20248 Accuracy: -m0 Conclusion: CDDA 100% Signature: 79AD95228C000F06D579EAC9A2F41194461E8590
</div>
</div>
Треклист:
01. London Symphony Orchestra – This Is Our World (04:02)
02. Tomoya Ohtani – Set in Motion - Guardian Rock (feat. Claudia Vazquez) (03:28)
03. Tomoya Ohtani – Death Crab Pursuit (01:21)
04. Tomoya Ohtani – Network Terminal (02:49)
05. Tomoya Ohtani – Network Terminal - Interior (01:48)
06. Naofumi Hataya – Death Prison - Death Egg (03:16)
07. Takahito Eguchi – Cutscene - Scrambled Death Egg (01:06)
08. Tomoya Ohtani – Metropolitan Highway (02:57)
09. Takahito Eguchi – Cutscene - Null Space (01:05)
10. Tomoya Ohtani & Yutaka Minobe – Null Space (01:57)
11. Douglas Robb from Hoobastank – Fist Bump - Escape from Null Space (01:27)
12. Takahito Eguchi – Cutscene - Nothing Can Contain Us! (00:44)
13. Takahito Eguchi – Cutscene - Sun of Despair (02:23)
14. Tomoya Ohtani – Fading World - Imperial Tower (feat. Madeleine Wood & B-BANDJ) (05:08)
15. London Symphony Orchestra – Cutscene - Valor and Wonder (01:04)
16. Tomoya Ohtani – Mortar Canyon (05:00)
17. Takahito Eguchi – Cutscene - Infinite Showdown (00:27)
18. Yutaka Minobe – Battle with Infinite - Showdown (03:16)
19. Takahito Eguchi – Cutscene - Infinite's End (00:49)
20. Naofumi Hataya – Iron Fortress (03:20)
21. Tomoya Ohtani – Last Judgment (04:28)
22. Tomoya Ohtani – Final Judgment - Reactor (01:48)
23. Takahito Eguchi – Cutscene - Mega Death Egg Robot (01:28)
24. Tomoya Ohtani – Battle with Mega Death Egg Robot (04:50)
25. Takahito Eguchi – Cutscene - The Resistance Prevails (00:40)
26. Takahito Eguchi – Cutscene - Parting Ways (00:37)
27. Tomoya Ohtani – The Light of Hope (feat. Amy Hannam) (05:34)
28. Takahito Eguchi – Cutscene - New Journeys (01:56)
29. Tomoya Ohtani – The Light of Hope - Title Screen ver. (05:34)
<div class="sp-wrap">
<div class="sp-head folded">Лог создания рипа</div>
<div class="sp-body">

Exact Audio Copy V1.3 from 2. September 2016

EAC extraction logfile from 10. April 2018, 17:59

Various Artists / Sonic Forces Original Soundtrack [A Hero Will Rise]

Used drive : HL-DT-STBD-RE BE14NU40 Adapter: 1 ID: 1

Read mode : SecureUtilize accurate stream : YesDefeat audio cache : YesMake use of C2 pointers : No

Read offset correction : 6Overread into Lead-In and Lead-Out : NoFill up missing offset samples with silence : YesDelete leading and trailing silent blocks : NoNull samples used in CRC calculations : YesUsed interface : Native Win32 interface for Win NT & 2000Gap handling : Appended to previous track

Used output format : User Defined EncoderSelected bitrate : 896 kBit/sQuality : HighAdd ID3 tag : NoCommand line compressor : C:\Program Files\flac\win64\flac.exeAdditional command line options : -8 -e -p -V -T "ARTIST=%artist%" -T "TITLE=%title%" -T "ALBUM=%albumtitle%" -T "DATE=%year%" -T "TRACKNUMBER=%tracknr%" -T "GENRE=%genre%" -T "PERFORMER=%albuminterpret%" -T "COMPOSER=%composer%" %haslyrics%--tag-from-file=LYRICS="%lyricsfile%"%haslyrics% -T "ALBUMARTIST=%albumartist%" -T "DISCNUMBER=%cdnumber%" -T "TOTALDISCS=%totalcds%" -T "TOTALTRACKS=%numtracks%" -T "COMMENT=%comment%" %source% -o %dest%

TOC of the extracted CD

Track | Start | Length | Start sector | End sector --------------------------------------------------------- 1 | 0:00.00 | 4:02.28 | 0 | 18177 2 | 4:02.28 | 3:28.29 | 18178 | 33806 3 | 7:30.57 | 1:21.04 | 33807 | 39885 4 | 8:51.61 | 2:48.58 | 39886 | 52543 5 | 11:40.44 | 1:48.08 | 52544 | 60651 6 | 13:28.52 | 3:15.43 | 60652 | 75319 7 | 16:44.20 | 1:05.48 | 75320 | 80242 8 | 17:49.68 | 2:56.36 | 80243 | 93478 9 | 20:46.29 | 1:04.38 | 93479 | 98316 10 | 21:50.67 | 1:57.02 | 98317 | 107093 11 | 23:47.69 | 1:26.52 | 107094 | 113595 12 | 25:14.46 | 0:43.52 | 113596 | 116872 13 | 25:58.23 | 2:22.40 | 116873 | 127562 14 | 28:20.63 | 5:07.36 | 127563 | 150623 15 | 33:28.24 | 1:04.18 | 150624 | 155441 16 | 34:32.42 | 4:59.66 | 155442 | 177932 17 | 39:32.33 | 0:26.40 | 177933 | 179922 18 | 39:58.73 | 3:15.61 | 179923 | 194608 19 | 43:14.59 | 0:48.65 | 194609 | 198273 20 | 44:03.49 | 3:19.39 | 198274 | 213237 21 | 47:23.13 | 4:28.27 | 213238 | 233364 22 | 51:51.40 | 1:48.09 | 233365 | 241473 23 | 53:39.49 | 1:27.50 | 241474 | 248048 24 | 55:07.24 | 4:50.26 | 248049 | 269824 25 | 59:57.50 | 0:40.00 | 269825 | 272824 26 | 60:37.50 | 0:36.66 | 272825 | 275590 27 | 61:14.41 | 5:34.31 | 275591 | 300671 28 | 66:48.72 | 1:56.10 | 300672 | 309381 29 | 68:45.07 | 5:33.43 | 309382 | 334399

Track 1

Filename C:\EAC\01 - London Symphony Orchestra - This Is Our World.wav

Pre-gap length 0:00:02.00

Peak level 100.0 % Extraction speed 1.0 X Track quality 99.9 % Test CRC ED7AD226 Copy CRC ED7AD226 Accurately ripped (confidence 4) [60F61798] (AR v2) Copy OK

Track 2

Filename C:\EAC\02 - Tomoya Ohtani feat. Claudia Vazquez - Set in Motion - Guardian Rock.wav

Peak level 97.7 % Extraction speed 1.2 X Track quality 100.0 % Test CRC 054A0C05 Copy CRC 054A0C05 Accurately ripped (confidence 4) [0132F052] (AR v2) Copy OK

Track 3

Filename C:\EAC\03 - Tomoya Ohtani - Death Crab Pursuit.wav

Pre-gap length 0:00:00.12

Peak level 98.9 % Extraction speed 1.0 X Track quality 100.0 % Test CRC 40694A58 Copy CRC 40694A58 Accurately ripped (confidence 4) [58CBF9D0] (AR v2) Copy OK

Track 4

Filename C:\EAC\04 - Tomoya Ohtani - Network Terminal.wav

Pre-gap length 0:00:00.73

Peak level 99.9 % Extraction speed 1.3 X Track quality 100.0 % Test CRC 783A8140 Copy CRC 783A8140 Accurately ripped (confidence 4) [98A5C144] (AR v2) Copy OK

Track 5

Filename C:\EAC\05 - Tomoya Ohtani - Network Terminal - Interior.wav

Pre-gap length 0:00:01.01

Peak level 99.7 % Extraction speed 1.2 X Track quality 100.0 % Test CRC 63DE12A0 Copy CRC 63DE12A0 Accurately ripped (confidence 4) [E0A5DEC9] (AR v2) Copy OK

Track 6

Filename C:\EAC\06 - Naofumi Hataya - Death Prison - Death Egg.wav

Pre-gap length 0:00:01.00

Peak level 99.7 % Extraction speed 1.4 X Track quality 100.0 % Test CRC CE2DF2C3 Copy CRC CE2DF2C3 Accurately ripped (confidence 4) [0D274902] (AR v2) Copy OK

Track 7

Filename C:\EAC\07 - Takahito Eguchi - Cutscene - Scrambled Death Egg.wav

Pre-gap length 0:00:01.00

Peak level 99.7 % Extraction speed 1.1 X Track quality 100.0 % Test CRC 67DA5F33 Copy CRC 67DA5F33 Accurately ripped (confidence 4) [F5153738] (AR v2) Copy OK

Track 8

Filename C:\EAC\08 - Tomoya Ohtani - Metropolitan Highway.wav

Peak level 99.9 % Extraction speed 1.5 X Track quality 100.0 % Test CRC 333EB7CD Copy CRC 333EB7CD Accurately ripped (confidence 4) [149D5698] (AR v2) Copy OK

Track 9

Filename C:\EAC\09 - Takahito Eguchi - Cutscene - Null Space.wav

Pre-gap length 0:00:01.00

Peak level 55.9 % Extraction speed 1.2 X Track quality 100.0 % Test CRC 0A536993 Copy CRC 0A536993 Accurately ripped (confidence 4) [BB0813C7] (AR v2) Copy OK

Track 10

Filename C:\EAC\10 - Tomoya Ohtani, Yutaka Minobe - Null Space.wav

Peak level 79.2 % Extraction speed 1.5 X Track quality 100.0 % Test CRC 430BA610 Copy CRC 430BA610 Accurately ripped (confidence 4) [DC5C23C9] (AR v2) Copy OK

Track 11

Filename C:\EAC\11 - Douglas Robb from Hoobastank - Fist Bump - Escape from Null Space.wav

Peak level 99.9 % Extraction speed 1.4 X Track quality 100.0 % Test CRC 6EA3A3C8 Copy CRC 6EA3A3C8 Accurately ripped (confidence 4) [C039C8CD] (AR v2) Copy OK

Track 12

Filename C:\EAC\12 - Takahito Eguchi - Cutscene - Nothing Can Contain Us!.wav

Peak level 99.7 % Extraction speed 1.1 X Track quality 100.0 % Test CRC 27D9E29F Copy CRC 27D9E29F Accurately ripped (confidence 4) [B82B7AF7] (AR v2) Copy OK

Track 13

Filename C:\EAC\13 - Takahito Eguchi - Cutscene - Sun of Despair.wav

Peak level 99.9 % Extraction speed 1.6 X Track quality 100.0 % Test CRC 468E5494 Copy CRC 468E5494 Accurately ripped (confidence 4) [403A4C8A] (AR v2) Copy OK

Track 14

Filename C:\EAC\14 - Tomoya Ohtani feat. Madeleine Wood & B-BANDJ - Fading World - Imperial Tower.wav

Peak level 99.7 % Extraction speed 1.9 X Track quality 100.0 % Test CRC 2EA59BC5 Copy CRC 2EA59BC5 Accurately ripped (confidence 4) [7497ABCB] (AR v2) Copy OK

Track 15

Filename C:\EAC\15 - London Symphony Orchestra - Cutscene - Valor and Wonder.wav

Peak level 99.9 % Extraction speed 1.4 X Track quality 100.0 % Test CRC B56A524F Copy CRC B56A524F Accurately ripped (confidence 4) [6A7CE5AE] (AR v2) Copy OK

Track 16

Filename C:\EAC\16 - Tomoya Ohtani - Mortar Canyon.wav

Peak level 99.9 % Extraction speed 2.0 X Track quality 100.0 % Test CRC 3741BCBA Copy CRC 3741BCBA Accurately ripped (confidence 4) [44762DD9] (AR v2) Copy OK

Track 17

Filename C:\EAC\17 - Takahito Eguchi - Cutscene - Infinite Showdown.wav

Peak level 99.7 % Extraction speed 0.5 X Track quality 99.5 % Test CRC B89BC27E Copy CRC B89BC27E Accurately ripped (confidence 4) [17ED202B] (AR v2) Copy OK

Track 18

Filename C:\EAC\18 - Yutaka Minobe - Battle with Infinite - Showdown.wav

Peak level 99.9 % Extraction speed 2.0 X Track quality 100.0 % Test CRC 92F9D13A Copy CRC 92F9D13A Accurately ripped (confidence 4) [4F74D6DA] (AR v2) Copy OK

Track 19

Filename C:\EAC\19 - Takahito Eguchi - Cutscene - Infinite's End.wav

Peak level 99.8 % Extraction speed 1.3 X Track quality 100.0 % Test CRC 138360CF Copy CRC 138360CF Accurately ripped (confidence 4) [29ACD4FC] (AR v2) Copy OK

Track 20

Filename C:\EAC\20 - Naofumi Hataya - Iron Fortress.wav

Peak level 99.9 % Extraction speed 1.8 X Track quality 99.9 % Test CRC 45FD4398 Copy CRC 45FD4398 Accurately ripped (confidence 4) [D4635281] (AR v2) Copy OK

Track 21

Filename C:\EAC\21 - Tomoya Ohtani - Last Judgment.wav

Peak level 99.9 % Extraction speed 2.2 X Track quality 100.0 % Test CRC 554CDD97 Copy CRC 554CDD97 Accurately ripped (confidence 4) [F896D50A] (AR v2) Copy OK

Track 22

Filename C:\EAC\22 - Tomoya Ohtani - Final Judgment - Reactor.wav

Pre-gap length 0:00:01.00

Peak level 99.9 % Extraction speed 1.9 X Track quality 100.0 % Test CRC 643AAF05 Copy CRC 643AAF05 Accurately ripped (confidence 4) [29E1DF35] (AR v2) Copy OK

Track 23

Filename C:\EAC\23 - Takahito Eguchi - Cutscene - Mega Death Egg Robot.wav

Peak level 99.9 % Extraction speed 1.7 X Track quality 100.0 % Test CRC C399527E Copy CRC C399527E Accurately ripped (confidence 4) [55302A16] (AR v2) Copy OK

Track 24

Filename C:\EAC\24 - Tomoya Ohtani - Battle with Mega Death Egg Robot.wav

Peak level 99.9 % Extraction speed 2.3 X Track quality 100.0 % Test CRC A20D75E9 Copy CRC A20D75E9 Accurately ripped (confidence 4) [0B3CE23A] (AR v2) Copy OK

Track 25

Filename C:\EAC\25 - Takahito Eguchi - Cutscene - The Resistance Prevails.wav

Pre-gap length 0:00:01.00

Peak level 99.8 % Extraction speed 1.4 X Track quality 100.0 % Test CRC 209772AC Copy CRC 209772AC Accurately ripped (confidence 4) [2EC3D4B1] (AR v2) Copy OK

Track 26

Filename C:\EAC\26 - Takahito Eguchi - Cutscene - Parting Ways.wav

Peak level 50.0 % Extraction speed 1.3 X Track quality 100.0 % Test CRC 4E3CBA7F Copy CRC 4E3CBA7F Accurately ripped (confidence 4) [FA27D700] (AR v2) Copy OK

Track 27

Filename C:\EAC\27 - Tomoya Ohtani feat. Amy Hannam - The Light of Hope.wav

Peak level 99.8 % Extraction speed 2.5 X Track quality 100.0 % Test CRC 1323847A Copy CRC 1323847A Accurately ripped (confidence 4) [E3339A86] (AR v2) Copy OK

Track 28

Filename C:\EAC\28 - Takahito Eguchi - Cutscene - New Journeys.wav

Peak level 99.7 % Extraction speed 2.1 X Track quality 100.0 % Test CRC 6DDDCE3A Copy CRC 6DDDCE3A Accurately ripped (confidence 4) [F183A6AA] (AR v2) Copy OK

Track 29

Filename C:\EAC\29 - Tomoya Ohtani - The Light of Hope - Title Screen ver..wav

Peak level 99.7 % Extraction speed 2.5 X Track quality 100.0 % Test CRC 47C2F5C7 Copy CRC 47C2F5C7 Accurately ripped (confidence 4) [B7A0574D] (AR v2) Copy OK

All tracks accurately ripped

No errors occurred

End of status report

---- CUETools DB Plugin V2.1.6

[CTDB TOCID: 2.daiidhosOoKOhbSaxlLBUBPDg-] foundSubmit result: 2.daiidhosOoKOhbSaxlLBUBPDg- has been confirmedTrack | CTDB Status 1 | (19/19) Accurately ripped 2 | (19/19) Accurately ripped 3 | (19/19) Accurately ripped 4 | (19/19) Accurately ripped 5 | (19/19) Accurately ripped 6 | (19/19) Accurately ripped 7 | (19/19) Accurately ripped 8 | (19/19) Accurately ripped 9 | (19/19) Accurately ripped 10 | (19/19) Accurately ripped 11 | (19/19) Accurately ripped 12 | (19/19) Accurately ripped 13 | (19/19) Accurately ripped 14 | (19/19) Accurately ripped 15 | (19/19) Accurately ripped 16 | (19/19) Accurately ripped 17 | (19/19) Accurately ripped 18 | (19/19) Accurately ripped 19 | (19/19) Accurately ripped 20 | (19/19) Accurately ripped 21 | (19/19) Accurately ripped 22 | (19/19) Accurately ripped 23 | (19/19) Accurately ripped 24 | (19/19) Accurately ripped 25 | (19/19) Accurately ripped 26 | (19/19) Accurately ripped 27 | (19/19) Accurately ripped 28 | (19/19) Accurately ripped 29 | (19/19) Accurately ripped

==== Log checksum E29F91BAB58E49FA0D6D33BB6DC5502E252CAD837A7EA8BAAFA4DB192467FDE1 ====
REM GENRE SoundtrackREM DATE 2017REM DISCID 65116A1DREM COMMENT "ExactAudioCopy v1.3"CATALOG 4571164384085PERFORMER "Various Artists"TITLE "Sonic Forces Original Soundtrack [A Hero Will Rise]"REM COMPOSER ""FILE "01 - London Symphony Orchestra - This Is Our World.wav" WAVE TRACK 01 AUDIO TITLE "This Is Our World" PERFORMER "London Symphony Orchestra" REM COMPOSER "Tomoya Ohtani" ISRC JPX301712640 INDEX 01 00:00:00FILE "02 - Tomoya Ohtani feat. Claudia Vazquez - Set in Motion - Guardian Rock.wav" WAVE TRACK 02 AUDIO TITLE "Set in Motion - Guardian Rock" PERFORMER "Tomoya Ohtani feat. Claudia Vazquez" REM COMPOSER "" ISRC JPX301712650 INDEX 01 00:00:00 TRACK 03 AUDIO TITLE "Death Crab Pursuit" PERFORMER "Tomoya Ohtani" REM COMPOSER "" ISRC JPX301712660 INDEX 00 03:28:17FILE "03 - Tomoya Ohtani - Death Crab Pursuit.wav" WAVE INDEX 01 00:00:00 TRACK 04 AUDIO TITLE "Network Terminal" PERFORMER "Tomoya Ohtani" REM COMPOSER "" ISRC JPX301712670 INDEX 00 01:20:06FILE "04 - Tomoya Ohtani - Network Terminal.wav" WAVE INDEX 01 00:00:00 TRACK 05 AUDIO TITLE "Network Terminal - Interior" PERFORMER "Tomoya Ohtani" REM COMPOSER "" ISRC JPX301712680 INDEX 00 02:47:57FILE "05 - Tomoya Ohtani - Network Terminal - Interior.wav" WAVE INDEX 01 00:00:00 TRACK 06 AUDIO TITLE "Death Prison - Death Egg" PERFORMER "Naofumi Hataya" REM COMPOSER "" ISRC JPX301712690 INDEX 00 01:47:08FILE "06 - Naofumi Hataya - Death Prison - Death Egg.wav" WAVE INDEX 01 00:00:00 TRACK 07 AUDIO TITLE "Cutscene - Scrambled Death Egg" PERFORMER "Takahito Eguchi" REM COMPOSER "" ISRC JPX301712700 INDEX 00 03:14:43FILE "07 - Takahito Eguchi - Cutscene - Scrambled Death Egg.wav" WAVE INDEX 01 00:00:00FILE "08 - Tomoya Ohtani - Metropolitan Highway.wav" WAVE TRACK 08 AUDIO TITLE "Metropolitan Highway" PERFORMER "Tomoya Ohtani" REM COMPOSER "" ISRC JPX301712700 INDEX 01 00:00:00 TRACK 09 AUDIO TITLE "Cutscene - Null Space" PERFORMER "Takahito Eguchi" REM COMPOSER "" ISRC JPX301712720 INDEX 00 02:55:36FILE "09 - Takahito Eguchi - Cutscene - Null Space.wav" WAVE INDEX 01 00:00:00FILE "10 - Tomoya Ohtani, Yutaka Minobe - Null Space.wav" WAVE TRACK 10 AUDIO TITLE "Null Space" PERFORMER "Tomoya Ohtani, Yutaka Minobe" REM COMPOSER "" ISRC JPX301712730 INDEX 01 00:00:00FILE "11 - Douglas Robb from Hoobastank - Fist Bump - Escape from Null Space.wav" WAVE TRACK 11 AUDIO TITLE "Fist Bump - Escape from Null Space" PERFORMER "Douglas Robb from Hoobastank" REM COMPOSER "" ISRC JPX301712740 INDEX 01 00:00:00FILE "12 - Takahito Eguchi - Cutscene - Nothing Can Contain Us!.wav" WAVE TRACK 12 AUDIO TITLE "Cutscene - Nothing Can Contain Us!" PERFORMER "Takahito Eguchi" REM COMPOSER "" ISRC JPX301712750 INDEX 01 00:00:00FILE "13 - Takahito Eguchi - Cutscene - Sun of Despair.wav" WAVE TRACK 13 AUDIO TITLE "Cutscene - Sun of Despair" PERFORMER "Takahito Eguchi" REM COMPOSER "" ISRC JPX301712760 INDEX 01 00:00:00FILE "14 - Tomoya Ohtani feat. Madeleine Wood & B-BANDJ - Fading World - Imperial Tower.wav" WAVE TRACK 14 AUDIO TITLE "Fading World - Imperial Tower" PERFORMER "Tomoya Ohtani feat. Madeleine Wood & B-BANDJ" REM COMPOSER "" ISRC JPX301712770 FLAGS DCP INDEX 01 00:00:00FILE "15 - London Symphony Orchestra - Cutscene - Valor and Wonder.wav" WAVE TRACK 15 AUDIO TITLE "Cutscene - Valor and Wonder" PERFORMER "London Symphony Orchestra" REM COMPOSER "Takahito Eguchi" ISRC JPX301712780 INDEX 01 00:00:00FILE "16 - Tomoya Ohtani - Mortar Canyon.wav" WAVE TRACK 16 AUDIO TITLE "Mortar Canyon" PERFORMER "Tomoya Ohtani" REM COMPOSER "" ISRC JPX301712780 INDEX 01 00:00:00FILE "17 - Takahito Eguchi - Cutscene - Infinite Showdown.wav" WAVE TRACK 17 AUDIO TITLE "Cutscene - Infinite Showdown" PERFORMER "Takahito Eguchi" REM COMPOSER "" ISRC JPX301712800 INDEX 01 00:00:00FILE "18 - Yutaka Minobe - Battle with Infinite - Showdown.wav" WAVE TRACK 18 AUDIO TITLE "Battle with Infinite - Showdown" PERFORMER "Yutaka Minobe" REM COMPOSER "" ISRC JPX301712810 INDEX 01 00:00:00FILE "19 - Takahito Eguchi - Cutscene - Infinite's End.wav" WAVE TRACK 19 AUDIO TITLE "Cutscene - Infinite's End" PERFORMER "Takahito Eguchi" REM COMPOSER "" ISRC JPX301712820 INDEX 01 00:00:00FILE "20 - Naofumi Hataya - Iron Fortress.wav" WAVE TRACK 20 AUDIO TITLE "Iron Fortress" PERFORMER "Naofumi Hataya" REM COMPOSER "" ISRC JPX301712830 INDEX 01 00:00:00FILE "21 - Tomoya Ohtani - Last Judgment.wav" WAVE TRACK 21 AUDIO TITLE "Last Judgment" PERFORMER "Tomoya Ohtani" REM COMPOSER "" ISRC JPX301712840 INDEX 01 00:00:00 TRACK 22 AUDIO TITLE "Final Judgment - Reactor" PERFORMER "Tomoya Ohtani" REM COMPOSER "" ISRC JPX301712850 INDEX 00 04:27:27FILE "22 - Tomoya Ohtani - Final Judgment - Reactor.wav" WAVE INDEX 01 00:00:00FILE "23 - Takahito Eguchi - Cutscene - Mega Death Egg Robot.wav" WAVE TRACK 23 AUDIO TITLE "Cutscene - Mega Death Egg Robot" PERFORMER "Takahito Eguchi" REM COMPOSER "" ISRC JPX301712860 INDEX 01 00:00:00FILE "24 - Tomoya Ohtani - Battle with Mega Death Egg Robot.wav" WAVE TRACK 24 AUDIO TITLE "Battle with Mega Death Egg Robot" PERFORMER "Tomoya Ohtani" REM COMPOSER "" ISRC JPX301712870 INDEX 01 00:00:00 TRACK 25 AUDIO TITLE "Cutscene - The Resistance Prevails" PERFORMER "Takahito Eguchi" REM COMPOSER "" ISRC JPX301712880 INDEX 00 04:49:26FILE "25 - Takahito Eguchi - Cutscene - The Resistance Prevails.wav" WAVE INDEX 01 00:00:00FILE "26 - Takahito Eguchi - Cutscene - Parting Ways.wav" WAVE TRACK 26 AUDIO TITLE "Cutscene - Parting Ways" PERFORMER "Takahito Eguchi" REM COMPOSER "" ISRC JPX301712890 INDEX 01 00:00:00FILE "27 - Tomoya Ohtani feat. Amy Hannam - The Light of Hope.wav" WAVE TRACK 27 AUDIO TITLE "The Light of Hope" PERFORMER "Tomoya Ohtani feat. Amy Hannam" REM COMPOSER "" ISRC JPX301712900 INDEX 01 00:00:00FILE "28 - Takahito Eguchi - Cutscene - New Journeys.wav" WAVE TRACK 28 AUDIO TITLE "Cutscene - New Journeys" PERFORMER "Takahito Eguchi" REM COMPOSER "" ISRC JPX301712910 INDEX 01 00:00:00FILE "29 - Tomoya Ohtani - The Light of Hope - Title Screen ver..wav" WAVE TRACK 29 AUDIO TITLE "The Light of Hope - Title Screen ver." PERFORMER "Tomoya Ohtani" REM COMPOSER "" ISRC JPX301712920 INDEX 01 00:00:00
-----------------------

DON'T MODIFY THIS FILE

-----------------------

PERFORMER: auCDtect Task Manager, ver. 1.6.0 RC1 build 1.6.0.1Copyright (c) 2008-2010 y-soft. All rights reservedhttp://y-soft.org

ANALYZER: auCDtect: CD records authenticity detector, version 0.8.2Copyright (c) 2004 Oleg Berngardt. All rights reserved.Copyright (c) 2004 Alexander Djourik. All rights reserved.

FILE: 29 - Tomoya Ohtani - The Light of Hope - Title Screen ver..flac Size: 26238342 Hash: E75D55E90C599E70346CD4137E275E85 Accuracy: -m0 Conclusion: CDDA 99% Signature: D198BB28FAE50BBB6F9BAAB577FEF0BFE45C8DAAFILE: 28 - Takahito Eguchi - Cutscene - New Journeys.flac Size: 9027437 Hash: 80A58ECE6CF7C9F9ED5C8FADB8313AD4 Accuracy: -m0 Conclusion: CDDA 100% Signature: 7018DDB0A624104D384C39AD3E6C7FB3E5714282FILE: 27 - Tomoya Ohtani feat. Amy Hannam - The Light of Hope.flac Size: 37221952 Hash: A129E72F6C8656329AA54A1B4D1F8EA8 Accuracy: -m0 Conclusion: CDDA 100% Signature: 28DD33448B66787715D3CDB3222A6152C0F8FE70FILE: 26 - Takahito Eguchi - Cutscene - Parting Ways.flac Size: 2468427 Hash: 71E3D219D31921948F99BE673EE9B9B3 Accuracy: -m0 Conclusion: CDDA 100% Signature: ABC1D2C0BB2A60E0999A9B0A2DD758EFB7027E41FILE: 25 - Takahito Eguchi - Cutscene - The Resistance Prevails.flac Size: 4090296 Hash: 44547E6E08BB9C843AA02BC75A656164 Accuracy: -m0 Conclusion: CDDA 99% Signature: AF4E7B6F73861EE4F688F1CFDCD7878AF23CEAC6FILE: 24 - Tomoya Ohtani - Battle with Mega Death Egg Robot.flac Size: 33667694 Hash: 3569B5A922B437063D79F54FFA39673E Accuracy: -m0 Conclusion: CDDA 100% Signature: F1AECEFC9C4E37523FA2996B733FBCC3587E215AFILE: 23 - Takahito Eguchi - Cutscene - Mega Death Egg Robot.flac Size: 9319237 Hash: 253719CACFA1DCCDE5C37ADDF4F8D24A Accuracy: -m0 Conclusion: CDDA 100% Signature: 73CD76CAA7CDDAD9292D6189AE163912DECC7B40FILE: 22 - Tomoya Ohtani - Final Judgment - Reactor.flac Size: 13912341 Hash: 00FB0561146F583F5CD2524909E5E2C9 Accuracy: -m0 Conclusion: CDDA 100% Signature: F2B1C35AB58908E22FCC22C72FDD41ECC364CEC9FILE: 21 - Tomoya Ohtani - Last Judgment.flac Size: 36492294 Hash: EF016DB12AE7ED0E6C263258710E3604 Accuracy: -m0 Conclusion: CDDA 100% Signature: FFBE4B9E87F8A4C040E91C7B6E68F44CCDB5957CFILE: 20 - Naofumi Hataya - Iron Fortress.flac Size: 22195243 Hash: 5D57C164C47291BDB1BE6D028D770C4D Accuracy: -m0 Conclusion: CDDA 99% Signature: 1DE1AF55A334F7915F5FDAF428370E575ACE1810FILE: 19 - Takahito Eguchi - Cutscene - Infinite's End.flac Size: 5061778 Hash: CF3C7720F1C56A7A122F6195FD6D67E3 Accuracy: -m0 Conclusion: CDDA 100% Signature: C21CC03BA2B938A652307657399622F5073D4BD3FILE: 18 - Yutaka Minobe - Battle with Infinite - Showdown.flac Size: 23282682 Hash: 2757F71FD420CDB36D0F935F5DAC5ECD Accuracy: -m0 Conclusion: CDDA 100% Signature: 9EE7C3A8BAE536CB2522EF23D9A95D92E1B7FBAEFILE: 17 - Takahito Eguchi - Cutscene - Infinite Showdown.flac Size: 2461090 Hash: CF2D70FEDF657692C797C0F5E2AD9D7F Accuracy: -m0 Conclusion: CDDA 100% Signature: 07FACAEEF1F259B817915B9448CB1DB0E4A1DC6CFILE: 16 - Tomoya Ohtani - Mortar Canyon.flac Size: 39492312 Hash: 9CD701DF95EABE5AAF24A124A3B5C5C6 Accuracy: -m0 Conclusion: CDDA 100% Signature: 42F21F1536D8B7BDB5964915E9AE606499B39315FILE: 15 - London Symphony Orchestra - Cutscene - Valor and Wonder.flac Size: 6432196 Hash: 5832F9AD75767B699CC89C51DB9DE6D3 Accuracy: -m0 Conclusion: CDDA 99% Signature: B1169A12626473A17DCD39C7A37AA20E677A57BEFILE: 14 - Tomoya Ohtani feat. Madeleine Wood & B-BANDJ - Fading World - Imperial Tower.flac Size: 39341666 Hash: C53B0C62C396116925F480E42BFC44AF Accuracy: -m0 Conclusion: CDDA 100% Signature: 0E35540F1DCA82FE11BD7070300C5C72A74C681FFILE: 13 - Takahito Eguchi - Cutscene - Sun of Despair.flac Size: 15170867 Hash: 9FB4052C4B937F3D384F062DAD7B2C25 Accuracy: -m0 Conclusion: CDDA 100% Signature: 3F2D7167F957E0D2BEEC68A0FF717C707225DFBDFILE: 12 - Takahito Eguchi - Cutscene - Nothing Can Contain Us!.flac Size: 4364622 Hash: 5E249218C16C648A334BD7AFAC070119 Accuracy: -m0 Conclusion: CDDA 100% Signature: C12693DF54A6ECC02B31777065BA8C030E81551AFILE: 11 - Douglas Robb from Hoobastank - Fist Bump - Escape from Null Space.flac Size: 11322097 Hash: 94CDD9292B5BA170E57BCF839EDB2CA6 Accuracy: -m0 Conclusion: CDDA 100% Signature: 41FAE29126D92B6E3494779C91CA2B0D9C3C1BC7FILE: 10 - Tomoya Ohtani, Yutaka Minobe - Null Space.flac Size: 10024912 Hash: D4772E538FBB1F8DD00F1F8677B5DA4F Accuracy: -m0 Conclusion: CDDA 100% Signature: D40A8D08C6E5D6F18C32955BAD49C3ED1516CDB7FILE: 09 - Takahito Eguchi - Cutscene - Null Space.flac Size: 4291071 Hash: 730B74FB532463C7CE2F2DB060A8F2C6 Accuracy: -m0 Conclusion: CDDA 100% Signature: 8CADFF84792EC3656C4FDE46AD1215360518D2F1FILE: 08 - Tomoya Ohtani - Metropolitan Highway.flac Size: 24275072 Hash: CBDBDDEFF506D36238F064FA8FF46D35 Accuracy: -m0 Conclusion: CDDA 100% Signature: 006163811429C90EEEE686447D23AEEA9A123061FILE: 07 - Takahito Eguchi - Cutscene - Scrambled Death Egg.flac Size: 4993619 Hash: 095BD90FF30A18C183285E0869FE4E34 Accuracy: -m0 Conclusion: CDDA 100% Signature: DD55A3254D117E6B3E35B2C6300A9395FB99B4C1FILE: 06 - Naofumi Hataya - Death Prison - Death Egg.flac Size: 21932188 Hash: 738D7756B00787A257D08658C808FB79 Accuracy: -m0 Conclusion: CDDA 100% Signature: 8A41E6FBCDCB820CCE4349D96CB6AD91E4E3E80AFILE: 05 - Tomoya Ohtani - Network Terminal - Interior.flac Size: 12996576 Hash: D3EB47A77D5E4224E8904D6E2E67760E Accuracy: -m0 Conclusion: CDDA 99% Signature: 0F8A7A5D02C2A6D0FC8BB81B08667FFFCE5CA970FILE: 04 - Tomoya Ohtani - Network Terminal.flac Size: 23154999 Hash: A12B58EFE7BCD6031F115AC8A5360EA7 Accuracy: -m0 Conclusion: CDDA 100% Signature: 09E1386E3F5D141B6026BA9510323922E937DE47FILE: 03 - Tomoya Ohtani - Death Crab Pursuit.flac Size: 10265823 Hash: 234880C424A53904BE421C029C2E7041 Accuracy: -m0 Conclusion: CDDA 100% Signature: 67F2935F085BB1DDA0B5FD1E779073AD42A1E467FILE: 02 - Tomoya Ohtani feat. Claudia Vazquez - Set in Motion - Guardian Rock.flac Size: 28314066 Hash: 092524F7BDCC39755F01AB61E5D67911 Accuracy: -m0 Conclusion: CDDA 100% Signature: 3533B57004816F121853FE178B4B6E003EB85DDFFILE: 01 - London Symphony Orchestra - This Is Our World.flac Size: 27686082 Hash: 2BEEE80489D2957601309C2FF86C9EB5 Accuracy: -m0 Conclusion: CDDA 100% Signature: E2E9031B808EB9E3C3504A8C205F5E8BED619038
</div>
</div>
Sonic Forces Original Soundtrack - A Hero Will Rise is the official soundtrack of Sonic Forces, composed by Naofumi Hataya and Tomoya Ohtani. The album released on 13 December 2017 in physical format in Japan and in digital format worldwide on iTunes and the Google Play Store. The album was published by Wave Master. In addition to vocal songs, the album contains all eighty-seven background songs in the game, including the orchestral songs performed by the London Symphony Orchestra and songs from the downloaded content, on three discs.


Трекер:  [ 14-Апр-2018 00:06 ]

  

Скачать .torrent

Размер .torrent файла 14 KB


Размер: 1.42 GB
Хэш (hash) релиза: 616f14ff74d29c7bbfb34d9105de075ddd9745eb

Торренты, похожие на Sonic Forces Original Soundtrack - A Hero Will Rise скачать торрент

Форум Название Автор Размер S L Добавлен
Саундтреки к играм (mp3) ·· (Soundtrack) Sonic Forces Original Soundtrack - A Hero Will Rise (Tomoya Ohtani) - 2018, M4A, 192-320 kbps Galfimbul 473141132451 MB 0 0 1518712960

19:42

15-Фев-18

Еще никто не оставлял запись к записи скачать торрент Sonic Forces Original Soundtrack - A Hero Will Rise . Будь первым!

!Обратная связь