Mobile Suit Gundam 00 | An Introduction to Western Philosophy | Quotidien d’un bipolaire

Скачать через торрент музыку бесплатно без регистрации torrent

Статистика раздачи
Размер:  379 MB   |    Зарегистрирован:  3 месяца 5 дней   |    .torrent скачан:  29 раз   |   
Раздают:  1  
   
загрузка...
 
Автор Сообщение

Galfimbul

avatar Galfimbul


OST - к/ф ''Параграф 78''

Жанр: SoundTrack
Носитель: CD
Страна-производитель диска (релиза): РФ
Год издания: 2007
Аудиокодек: Monkey's Audio Compressor (*.ape)
Тип рипа: image + .cue
Битрейт аудио: lossless
Продолжительность: 01:03:09
Источник (релизер): Личный CD rip
Наличие сканов в содержимом раздачи: добавлены



Треклист:

01 - Tobias Enhus - Snuggle
02 - Tobias Enhus - P78 Main Theme
03 - Ian Brown - Time Is My Everything
04 - Tobias Enhus - Breakfast In Bed
05 - The Rapture - Get Myself Into It
06 - The Rosebuds - Boxcar
07 - Hot Chip - Over & Over
08 - Death In Vegas - Hands Around My Throat
09 - Tobias Enhus - Helicopter
10 - Ian Brown - On Track
11 - Brett Anderson & Мумий Тролль - Scorpio Rising
12 - Tobias Enhus - Boom !
13 - The Crystal Method & Слава - Ответ 78 (Paul Oakenfold mix)
14 - Tobias Enhus - P78 Re Breather Mix (Andrew Phillpatt mix)
15 - Tobias Enhus - Tobias Enhus - Club P78 (Andrew Phillpatt mix)
Exact Audio Copy V1.3 from 2. September 2016

Отчёт EAC об извлечении, выполненном 13. апреля 2018, 21:48

Various / к/ф ''Параграф 78''

Дисковод: HL-DT-STDVDRAM GSA-T20N Adapter: 1 ID: 0

Режим чтения : ДостоверностьИспользование точного потока : ДаОтключение кэша аудио : ДаИспользование указателей C2 : Нет

Коррекция смещения при чтении : 667Способность читать области Lead-in и Lead-out : НетЗаполнение пропущенных сэмплов тишиной : ДаУдаление блоков с тишиной в начале и конце : НетПри вычислениях CRC использовались нулевые сэмплы : ДаИнтерфейс : Встроенный Win32-интерфейс для Win NT/2000

Выходной формат : Пользовательский кодировщикВыбранный битрейт : 768 kBit/sКачество : ВысокийДобавление ID3-тега : НетУтилита сжатия : { M } onkey's { A } udio { C } ompressor (версия 4.33 - декабрь 2017).exeДополнительные параметры : %dest% -t "DiscID=%cddbid%" -t "Comment= ~ ^ ` @ трудился РУ€_ик @ ` ^ ~ " -t "Album=%albumtitle%" -t "Album Artist=%albumartist%" -t "Year=%year%" -t "Genre=%genre%" MAC.exe %source% %dest% -c4000 -V

TOC извлечённого CD

Трек | Старт | Длительность | Начальный сектор | Конечный сектор --------------------------------------------------------------------- 1 | 0:00.00 | 2:13.14 | 0 | 9988 2 | 2:13.14 | 3:17.17 | 9989 | 24780 3 | 5:30.31 | 3:54.15 | 24781 | 42345 4 | 9:24.46 | 3:32.23 | 42346 | 58268 5 | 12:56.69 | 5:18.52 | 58269 | 82170 6 | 18:15.46 | 3:41.73 | 82171 | 98818 7 | 21:57.44 | 6:22.74 | 98819 | 127542 8 | 28:20.43 | 5:28.00 | 127543 | 152142 9 | 33:48.43 | 1:40.05 | 152143 | 159647 10 | 35:28.48 | 4:41.39 | 159648 | 180761 11 | 40:10.12 | 4:02.38 | 180762 | 198949 12 | 44:12.50 | 4:01.39 | 198950 | 217063 13 | 48:14.14 | 4:36.40 | 217064 | 237803 14 | 52:50.54 | 4:05.42 | 237804 | 256220 15 | 56:56.21 | 6:10.67 | 256221 | 284037

Характеристики диапазона извлечения и сообщения об ошибках

Выбранный диапазон

Имя файла C:\РУ€_ик\OST - ''Параграф 78''.wav

Пиковый уровень 90.3 % Скорость извлечения 3.1 X Качество диапазона 100.0 % CRC теста 0DE64E2E CRC копии 0DE64E2E Копирование... OK

Ошибок не произошло

AccurateRip: сводка

Трек 1 : извлечено точно (доверие 1) [6F772AC1] (AR v2)Трек 2 : извлечено точно (доверие 1) [5B0FBC29] (AR v2)Трек 3 : извлечено точно (доверие 1) [89D0F993] (AR v2)Трек 4 : извлечено точно (доверие 1) [4E56B6A8] (AR v2)Трек 5 : извлечено точно (доверие 1) [2EAC83A8] (AR v2)Трек 6 : извлечено точно (доверие 1) [6B01D38E] (AR v2)Трек 7 : извлечено точно (доверие 1) [743A8FE3] (AR v2)Трек 8 : извлечено точно (доверие 1) [6E46396C] (AR v2)Трек 9 : извлечено точно (доверие 1) [46E2C46D] (AR v2)Трек 10 : извлечено точно (доверие 1) [EF899614] (AR v2)Трек 11 : извлечено точно (доверие 1) [127EEFD8] (AR v2)Трек 12 : извлечено точно (доверие 1) [C55826D4] (AR v2)Трек 13 : извлечено точно (доверие 1) [09B1CF85] (AR v2)Трек 14 : извлечено точно (доверие 1) [0A4A20BD] (AR v2)Трек 15 : извлечено точно (доверие 1) [2972F945] (AR v2)

Все треки извлечены точно

Конец отчёта

---- CUETools DB Plugin V2.1.6

[CTDB TOCID: x8Ynv3S3x6SpxvvjO.8OQacHY2M-] foundSubmit result: x8Ynv3S3x6SpxvvjO.8OQacHY2M- has been confirmedTrack | CTDB Status 1 | (1/1) Accurately ripped 2 | (1/1) Accurately ripped 3 | (1/1) Accurately ripped 4 | (1/1) Accurately ripped 5 | (1/1) Accurately ripped 6 | (1/1) Accurately ripped 7 | (1/1) Accurately ripped 8 | (1/1) Accurately ripped 9 | (1/1) Accurately ripped 10 | (1/1) Accurately ripped 11 | (1/1) Accurately ripped 12 | (1/1) Accurately ripped 13 | (1/1) Accurately ripped 14 | (1/1) Accurately ripped 15 | (1/1) Accurately ripped

==== Контрольная сумма отчёта 29E5CD562083FCA817B03E2DF59109708621AE9F2CDFFA397A5D48C02B806DB3 ====




Трекер:  [ 13-Апр-2018 23:06 ]

  

Скачать .torrent

Размер .torrent файла 15 KB


Размер: 379 MB
Хэш (hash) релиза: 8eccb5fd8bc2f4351f17f14989171a0537e9fec0

Еще никто не оставлял запись к записи скачать торрент . Будь первым!

!Обратная связь