http://xiazaiwang.com/torrent/233282 | 12-01-2018, 18:46 | Exit Wounds

Скачать через торрент Синяя птица – Последний богатырь. Сказочный сезон 03 выпуск от 2018.04.08 Фильм бесплатно в хорошем качестве torrent

Скачивайте на UnionPeer.org фильмы через торрент без регистрации. Новинки кино в хорошем качестве через торрент. На UnionPeer.org можно скачать через торрент фильмы 2014 и 2015 годов. Самые новые фильмы.

Скачать торрент Синяя птица – Последний богатырь. Сказочный сезон 03 выпуск от 2018.04.08 бесплатно через .torrent фильм мультфильм сериал

Статистика раздачи
Размер:  6.33 GB   |    Зарегистрирован:  3 месяца 8 дней   |    .torrent скачан:  32 раза   |   
Раздают:  1  
   
загрузка...
 
Автор Сообщение

Galfimbul

avatar Galfimbul


Синяя птица – Последний богатырь. Сказочный сезон 03 выпуск от 2018.04.08

Дата/Год выпуска: 2018
Страна: Россия
Жанр: ТВ-шоу
Продолжительность: 01:20:00
Перевод: Не требуется
Телеканал: Россия 1 HD
Описание: Юные музыканты, певцы, танцоры, гимнасты, акробаты в возрасте от 5 до 15 лет примут участие в новом всероссийском конкурсе "Синяя птица"!
Впервые детский творческий конкурс объединяет самые разнообразные номинации: оперный вокал и эстрадный, хореографию и цирковое искусство, классику и современность.
С "Синей птицей" сбываются мечты!

Ведущия: Дарья Златопольская

Жюри: народные артисты России скрипачка и дирижер Светлана Безродная; ректор хореографического училища им. Вагановой, премьер Большого Театра Николай Цискаридзе; исполнитель русских романсов, певец Олег Погудин.

Источник: Собственная запись

Качество: HDTV 1080i
Контейнер: TS
Видео кодек: H.264
Аудио кодек: MP2
Видео: H264; 1920x1080 (16:9); 25.000 fps; ~10.8 Mb/s
Аудио : MPEG Audio Version 1 Layer 2, 48000Hz, 2 channels stereo 192 Кбит/сек
GeneralID : 1 (0x1)Complete name : F:\Behold TV 222\Синяя птица – Последний богатырь. Сказочный сезон 03 выпуск от 2018.04.08.tsFormat : MPEG-TSFile size : 6.33 GiBDuration : 1 h 18 minOverall bit rate mode : VariableOverall bit rate : 11.6 Mb/s

VideoID : 2292 (0x8F4)Menu ID : 2291 (0x8F3)Format : AVCFormat/Info : Advanced Video CodecFormat profile : [email protected] settings : CABAC / 4 Ref FramesFormat settings, CABAC : YesFormat settings, RefFrames : 4 framesFormat settings, GOP : M=4, N=32Codec ID : 27Duration : 1 h 18 minBit rate : 10.8 Mb/sWidth : 1 920 pixelsHeight : 1 080 pixelsDisplay aspect ratio : 16:9Frame rate : 25.000 FPSStandard : ComponentColor space : YUVChroma subsampling : 4:2:0Bit depth : 8 bitsScan type : InterlacedScan type, store method : Separated fieldsScan order : Top Field FirstBits/(Pixel*Frame) : 0.208Stream size : 5.91 GiB (93%)Color range : LimitedColor primaries : BT.709Transfer characteristics : BT.709Matrix coefficients : BT.709

AudioID : 2295 (0x8F7)Menu ID : 2291 (0x8F3)Format : MPEG AudioFormat version : Version 1Format profile : Layer 2Codec ID : 3Duration : 1 h 18 minBit rate mode : ConstantBit rate : 192 kb/sChannel(s) : 2 channelsSampling rate : 48.0 kHzCompression mode : LossyStream size : 108 MiB (2%)Language : Russian
2


Трекер:  [ 13-Апр-2018 22:42 ]

  

Скачать .torrent

Размер .torrent файла 32 KB


Размер: 6.33 GB
Хэш (hash) релиза: 98e2a773bb0d28f6b1981237ee5b27587ec2f591
Подписка на обновления:

Еще никто не оставлял запись к записи скачать торрент Синяя птица – Последний богатырь. Сказочный сезон 03 выпуск от 2018.04.08 . Будь первым!

!Обратная связь