72.STAR-893
女经理 Manger 2018 HD720P X264 AAC English 中文字幕

Скачать через торрент Синяя птица – Последний богатырь. Сказочный сезон 02 выпуск от 2018.04.01 Фильм бесплатно в хорошем качестве torrent

Скачивайте на UnionPeer.org фильмы через торрент без регистрации. Новинки кино в хорошем качестве через торрент. На UnionPeer.org можно скачать через торрент фильмы 2014 и 2015 годов. Самые новые фильмы.

Скачать торрент Синяя птица – Последний богатырь. Сказочный сезон 02 выпуск от 2018.04.01 бесплатно через .torrent фильм мультфильм сериал

Статистика раздачи
Размер:  5.45 GB   |    Зарегистрирован:  7 дней   |    .torrent скачан:  19 раз   |   
Раздают:  1  
   
загрузка...
 
Автор Сообщение

Galfimbul

avatar Galfimbul


Синяя птица – Последний богатырь. Сказочный сезон 02 выпуск от 2018.04.01

Дата/Год выпуска: 2018
Страна: Россия
Жанр: ТВ-шоу
Продолжительность: 01:20:00
Перевод: Не требуется
Телеканал: Россия 1 HD
Описание: Юные музыканты, певцы, танцоры, гимнасты, акробаты в возрасте от 5 до 15 лет примут участие в новом всероссийском конкурсе "Синяя птица"!
Впервые детский творческий конкурс объединяет самые разнообразные номинации: оперный вокал и эстрадный, хореографию и цирковое искусство, классику и современность.
С "Синей птицей" сбываются мечты!

Ведущия: Дарья Златопольская

Жюри: народные артисты России скрипачка и дирижер Светлана Безродная; ректор хореографического училища им. Вагановой, премьер Большого Театра Николай Цискаридзе; исполнитель русских романсов, певец Олег Погудин.

Источник: Собственная запись

Качество: HDTV 1080i
Контейнер: TS
Видео кодек: H.264
Аудио кодек: MP2
Видео: H264; 1920x1080 (16:9); 25.000 fps; ~10.4 Mb/s
Аудио : MPEG Audio Version 1 Layer 2, 48000Hz, 2 channels stereo 192 Кбит/сек
GeneralID : 1 (0x1)Complete name : E:\111__2018\Синяя птица – Последний богатырь. Сказочный сезон 02 выпуск от 2018.04.01.tsFormat : MPEG-TSFile size : 5.45 GiBDuration : 1 h 10 minOverall bit rate mode : VariableOverall bit rate : 11.1 Mb/s

VideoID : 2292 (0x8F4)Menu ID : 2291 (0x8F3)Format : AVCFormat/Info : Advanced Video CodecFormat profile : [email protected] settings : CABAC / 4 Ref FramesFormat settings, CABAC : YesFormat settings, RefFrames : 4 framesCodec ID : 27Duration : 1 h 10 minBit rate : 10.4 Mb/sWidth : 1 920 pixelsHeight : 1 080 pixelsDisplay aspect ratio : 16:9Frame rate : 25.000 FPSStandard : ComponentColor space : YUVChroma subsampling : 4:2:0Bit depth : 8 bitsScan type : InterlacedScan type, store method : Separated fieldsScan order : Top Field FirstBits/(Pixel*Frame) : 0.200Stream size : 5.09 GiB (93%)Color range : LimitedColor primaries : BT.709Transfer characteristics : BT.709Matrix coefficients : BT.709

AudioID : 2295 (0x8F7)Menu ID : 2291 (0x8F3)Format : MPEG AudioFormat version : Version 1Format profile : Layer 2Codec ID : 3Duration : 1 h 10 minBit rate mode : ConstantBit rate : 192 kb/sChannel(s) : 2 channelsSampling rate : 48.0 kHzCompression mode : LossyStream size : 96.4 MiB (2%)Language : Russian
2


Трекер:  [ 13-Апр-2018 22:12 ]

  

Скачать .torrent

Размер .torrent файла 28 KB


Размер: 5.45 GB
Хэш (hash) релиза: 679acbd753d5ee4ff43cfa87231f609dda084d32
Подписка на обновления:

Еще никто не оставлял запись к записи скачать торрент Синяя птица – Последний богатырь. Сказочный сезон 02 выпуск от 2018.04.01 . Будь первым!

!Обратная связь