One Piece 3D: Strawhat Chase (2011) | Poleconych | sandra model

Скачать через торрент Врата Штейна 0 Steins;Gate 0 бесплатно Аниме Все серии на русском torrent

Статистика раздачи
Размер:  590 MB   |    Зарегистрирован:  1 месяц 12 дней   |    .torrent скачан:  25 раз   |   
Раздают:  1  
   
загрузка...
 
Автор Сообщение

Galfimbul

avatar Galfimbul


Врата Штейна 0 / Steins;Gate 0 / Steins,Gate Zero
Страна: Япония
Год выпуска: 2018
Жанр: Фантастика, триллер
Тип: TV
Продолжительность: 23 эп. по ~24 мин.
Режиссер: Кавамура Кэнъити
Студия: White Fox
Перевод:
Русские субтитры от Wakanim
Описание: Отсутствующее звено аннулятора. Бесконечное блуждание по бесчисленным мировым линиям. Во время этого грубого путешествия Окабэ, наконец, отказался от идеи спасти Курису от ее фатальной судьбы. Таким образом, он возвращается за парту университета и погружается в банальную рутину. Тем не менее, Окабэ, который регулярно посещает психиатрическую клинику, не имея возможности исцелить рану, раздирающую его сердце, постепенно отвергает свое альтер эго самопровозглашенного безумного ученого.
Информационные ссылки: World Art | AniDB | MAL
Качество: WEBRip
Тип релиза: Без хардсаба
Формат видео: MKV
Наличие линковки: Нет
Видео: x264, 8bit, 1920x1080, ~3400 Kbps, 23.976 fps
Аудио Jap: AAC, 44.1kHz, ~128Kbps, 2ch
Субтитры Rus: ASS (внешними файлами)
GeneralUnique ID : 185289148696519645346888467625566040835 (0x8B6564591808264B91D39A926D947303)Complete name : J:\аниме\Steins;Gate 0\Steins;Gate 0\[Erai-raws] Steins;Gate 0 - 01 [1080p].mkvFormat : MatroskaFormat version : Version 4 / Version 2File size : 589 MiBDuration : 23 min 40 sOverall bit rate : 3 480 kb/sEncoded date : UTC 2018-04-13 18:26:57Writing application : mkvmerge v7.9.0 ('Birds') 64bitWriting library : libebml v1.3.1 + libmatroska v1.4.2

VideoID : 1Format : AVCFormat/Info : Advanced Video CodecFormat profile : [email protected] settings : CABAC / 4 Ref FramesFormat settings, CABAC : YesFormat settings, RefFrames : 4 framesCodec ID : V_MPEG4/ISO/AVCDuration : 23 min 39 sBit rate : 3 350 kb/sWidth : 1 920 pixelsHeight : 1 080 pixelsDisplay aspect ratio : 16:9Frame rate mode : ConstantFrame rate : 23.976 (24000/1001) FPSColor space : YUVChroma subsampling : 4:2:0Bit depth : 8 bitsScan type : ProgressiveBits/(Pixel*Frame) : 0.067Stream size : 567 MiB (96%)Writing library : x264 core 142Encoding settings : cabac=1 / ref=4 / deblock=1:1:1 / analyse=0x3:0x113 / me=umh / subme=8 / psy=1 / psy_rd=0.40:0.00 / mixed_ref=1 / me_range=16 / chroma_me=1 / trellis=1 / 8x8dct=1 / cqm=0 / deadzone=21,11 / fast_pskip=1 / chroma_qp_offset=-2 / threads=12 / lookahead_threads=2 / sliced_threads=0 / nr=0 / decimate=1 / interlaced=0 / bluray_compat=0 / constrained_intra=0 / bframes=3 / b_pyramid=2 / b_adapt=2 / b_bias=0 / direct=3 / weightb=1 / open_gop=0 / weightp=2 / keyint=48 / keyint_min=24 / scenecut=40 / intra_refresh=0 / rc_lookahead=48 / rc=crf / mbtree=1 / crf=15.0 / qcomp=0.60 / qpmin=0 / qpmax=69 / qpstep=4 / vbv_maxrate=8000 / vbv_bufsize=12000 / crf_max=0.0 / nal_hrd=none / filler=0 / ip_ratio=1.40 / aq=1:0.60Default : YesForced : No

AudioID : 2Format : AACFormat/Info : Advanced Audio CodecFormat profile : LCCodec ID : A_AAC-2Duration : 23 min 40 sBit rate : 128 kb/sChannel(s) : 2 channelsChannel positions : Front: L RSampling rate : 44.1 kHzFrame rate : 43.066 FPS (1024 SPF)Compression mode : LossyStream size : 21.7 MiB (4%)Title : JapaneseLanguage : JapaneseDefault : YesForced : No
01. Аннулятор. Недостающее звено.Абсолютный ноль


Трекер:  [ 13-Апр-2018 22:01 ]

  

Скачать .torrent

Размер .torrent файла 12 KB


Размер: 590 MB
Хэш (hash) релиза: ea039079656d2821e19da9f60fd9665960fa3dcd
Подписка на обновления:

Еще никто не оставлял запись к записи скачать торрент Врата Штейна 0 Steins;Gate 0 . Будь первым!

!Обратная связь