Hugh Jackman, Keala Settle, Zac Efron, Zendaya & The Greatest Showman Ensemble - The Greatest Show
Мужчина мужчине

Скачать через торрент Мэри и ведьмин цветок Mary to Majo no Hana бесплатно Аниме Все серии на русском torrent

Статистика раздачи
Размер:  1.83 GB   |    Зарегистрирован:  8 дней   |    .torrent скачан:  28 раз   |   
Раздают:  1  
   
загрузка...
 
Автор Сообщение

Galfimbul

avatar Galfimbul


Мэри и ведьмин цветок / Mary to Majo no Hana / Mary and the Witch's Flower / メアリと魔女の花



Страна: Япония
Год выпуска: 2017 г.
Жанр: Приключения, фэнтези
Тип: Movie
Продолжительность: 102 мин.
Режиссер: Хиромаса Ёнэбаяси
Студия: Studio Ponoc



Перевод:

Русские субтитры:
Переводчик: Константин Кривоногов
Работа над субтитрами: Страник 2.0

Озвучка: AlexFilm
- многоголосая: Алёна Левичева, Екатерина Муравицкая, Маргарита Корш, Светлана Чистохина, Леонид Дмитриев, Константин Федосеев, Кирилл Патрино, Михаил Федосеев
По переводу: Константин Кривоногов
Монтаж и сведение звука: Михаил Федосеев



Описание: Скучные каникулы в глухой деревне кажутся юной Мэри сущим наказанием. Но в последнюю неделю лета всё внезапно меняется. Нечаянная находка — дивный цветок — уносит Мэри в далёкое зачарованное царство, в мир, полный невероятных приключений и завораживающих чудес. И этому миру грозит опасность! Вместе с чёрным котом, соседским мальчиком-забиякой и маленькой волшебной метлой ей предстоит пройти через рискованные испытания, спасти жителей сказочной страны, узнать, что такое настоящая дружба и понять: мечты — даже самые необыкновенные — иногда сбываются!



world-art | AniDB | MyAnimeList | Офиц. Сайт | IMDb | KinoPoisk



Автор рипа и релиза : Страник 2.0

Качество: BDRip (исходник: BDRemux - Mary.to.Majo.no.Hana.1080p.BluRay.REMUX.DTS-HD.MA.5.1-BKL)
Тип релиза: Без хардсаба
Формат видео: AVI
Наличие линковки: Нет
Видео: XviD, 720x384 (1.85:1), 1767 Кбит/с, 23.976 fps 8bit
Аудио 1: Русский, AC3, 384 Кбит/с, 48 kHz, 6 ch (в составе контейнера)
Аудио 2: Японский, AC3, 384 Кбит/с, 48 kHz, 6 ch (в составе контейнера)
Субтитры (srt): Русские, Английские [с BD] (внешними файлами)




General
Complete name : E:/Torrent_2/Mary to Majo no Hana (2017, XviD BDRip, RUS JAP+SUB [Rus Eng]) [Stranik 2.0]/Mary to Majo no Hana (2017, XviD BDRip, RUS JAP+SUB [Rus Eng]) [Stranik 2.0].avi
Format : AVI
Format/Info : Audio Video Interleave
File size : 1.83 GiB
Duration : 1h 42mn
Overall bit rate : 2 549 Kbps
Writing application : VirtualDubMod 1.5.10.3 (build 2550/release)
Writing library : VirtualDubMod build 2550/release

Video #0
ID : 0
Format : MPEG-4 Visual
Format profile : Advanced [email protected]
Format settings, BVOP : 2
Format settings, QPel : No
Format settings, GMC : No warppoints
Format settings, Matrix : Custom
Codec ID : XVID
Codec ID/Hint : XviD
Duration : 1h 42mn
Bit rate : 1 767 Kbps
Width : 720 pixels
Height : 384 pixels
Display aspect ratio : 1.85:1
Frame rate : 23.976 fps
Color space : YUV
Chroma subsampling : 4:2:0
Bit depth : 8 bits
Scan type : Progressive
Compression mode : Lossy
Bits/(Pixel*Frame) : 0.267
Stream size : 1.27 GiB (69%)
Writing library : XviD 67

Audio #1
ID : 1
Format : AC-3
Format/Info : Audio Coding 3
Mode extension : CM (complete main)
Format settings, Endianness : Big
Codec ID : 2000
Duration : 1h 42mn
Bit rate mode : Constant
Bit rate : 384 Kbps
Channel(s) : 6 channels
Channel positions : Front: L C R, Side: L R, LFE
Sampling rate : 48.0 KHz
Bit depth : 16 bits
Compression mode : Lossy
Stream size : 282 MiB (15%)
Alignment : Split accross interleaves
Interleave, duration : 42 ms (1.00 video frame)
Interleave, preload duration : 500 ms

Audio #2
ID : 2
Format : AC-3
Format/Info : Audio Coding 3
Mode extension : CM (complete main)
Format settings, Endianness : Big
Codec ID : 2000
Duration : 1h 42mn
Bit rate mode : Constant
Bit rate : 384 Kbps
Channel(s) : 6 channels
Channel positions : Front: L C R, Side: L R, LFE
Sampling rate : 48.0 KHz
Bit depth : 16 bits
Compression mode : Lossy
Stream size : 282 MiB (15%)
Alignment : Split accross interleaves
Interleave, duration : 42 ms (1.00 video frame)
Interleave, preload duration : 500 ms
obolenkov - ...5543484 - альтернативная озвучка, наличие оригин. озвучки+русские сабы
Страник 2.0 - ...5546544
Страник 2.0 - ...5546544

- воспроизводится на железных плеерах

obolenkov - ...5542807 - наличие русских субтитров
Моя максимальная скорость отдачи 100КБ/c
Раздаю с 7:00 до 00:00 по Москве

Трекер:  [ 13-Апр-2018 13:01 ]

  

Скачать .torrent

Размер .torrent файла 19 KB


Размер: 1.83 GB
Хэш (hash) релиза: 523f9be3b9e3d8f433a61c4758e9e2cb5501cfa4
Подписка на обновления:

Еще никто не оставлял запись к записи скачать торрент Мэри и ведьмин цветок Mary to Majo no Hana . Будь первым!

!Обратная связь