डाउनलोड APK | Oz (1997-2003) | Comment telecharger sur le site

Скачать через торрент музыку Базиликата: от побережья к побережью Basilicata Coast To Coast бесплатно без регистрации torrent

Статистика раздачи
Размер:  348 MB   |    Зарегистрирован:  3 месяца 5 дней   |    .torrent скачан:  11 раз   |   
Раздают:  1  
   
загрузка...
 
Автор Сообщение

Galfimbul

avatar Galfimbul


Базиликата: от побережья к побережью / Basilicata Coast To Coast

Название альбома: Rita Marcotulli - Basilicata Coast To Coast - Colonna sonora originale
Жанр: Soundtrack
Композитор: Rita Marcotulli, Rocco Papaleo
Год выпуска диска: 2011
Год выпуска фильма: 2010
Страна-производитель диска: Italy
Издатель (лейбл): Alice Records
Номер по каталогу: AR006
Аудиокодек: FLAC (*.flac)
Тип рипа: image+.cue
Битрейт аудио: lossless
Продолжительность: 53:35
Источник: собственный рип
Наличие сканов в содержимом раздачи: нет

Треклист:

01. Maria Teresa (R. Papaleo) voice Paolo Briguglia, Rocco Papaleo - 4:04
02. Tropea (R. Marcotulli) - 2:37
03. Pane E Frittata (R. Papaleo) voice Alessandro Gassman, Paolo Briguglia - 3:01
04. Il Viaggio E La Strada (R. Marcotulli) - 8:05
05. Il Calore (R. Papaleo) voice Giovanna Mezzogiorno - 1:50
06. L'Americano (R. Papaleo) voice Rocco Papaleo - 3:27
07. Tuareg Per Tropea (R. Marcotulli) - 7:12
08. Pane E Olio (R. Papaleo) voice Rocco Papaleo - 5:08
09. Monkey Business (A. Sheppard) - 3:04
10. Sentire Just Feel (R. Marcotulli) - 4:43
11. Il Calore (Versione Gruppo) voice Rocco Papaleo - 3:46
12. Tropea Versione Gruppo (R. Marcotulli) - 3:48
13. Basilicata On My Mind (R. Papaleo - C. Mattone) voice Rocco Papaleo - 2:51
Exact Audio Copy V1.3 from 2. September 2016

EAC extraction logfile from 12. April 2018, 16:26

Rita Marcotulli / Basilicata Coast To Coast

Used drive : SlimtypeDVD A DA8A5SH Adapter: 1 ID: 0

Read mode : SecureUtilize accurate stream : YesDefeat audio cache : YesMake use of C2 pointers : No

Read offset correction : 6Overread into Lead-In and Lead-Out : NoFill up missing offset samples with silence : YesDelete leading and trailing silent blocks : NoNull samples used in CRC calculations : YesUsed interface : Native Win32 interface for Win NT & 2000

Used output format : User Defined EncoderSelected bitrate : 896 kBit/sQuality : HighAdd ID3 tag : NoCommand line compressor : C:\Program Files (x86)\Exact Audio Copy\FLAC\FLAC.EXEAdditional command line options : -V -6 -T "Genre=%genre%" -T "Artist=%artist%" -T "Title=%title%" -T "Album=%albumtitle%" -T "Date=%year%" -T "Tracknumber=%tracknr%" -T "Comment=%comment%" %source%

TOC of the extracted CD

Track | Start | Length | Start sector | End sector --------------------------------------------------------- 1 | 0:00.00 | 4:03.59 | 0 | 18283 2 | 4:03.59 | 2:37.03 | 18284 | 30061 3 | 6:40.62 | 3:01.05 | 30062 | 43641 4 | 9:41.67 | 8:04.63 | 43642 | 80004 5 | 17:46.55 | 1:49.46 | 80005 | 88225 6 | 19:36.26 | 3:27.00 | 88226 | 103750 7 | 23:03.26 | 7:12.09 | 103751 | 136159 8 | 30:15.35 | 5:08.00 | 136160 | 159259 9 | 35:23.35 | 3:03.57 | 159260 | 173041 10 | 38:27.17 | 4:42.55 | 173042 | 194246 11 | 43:09.72 | 3:45.42 | 194247 | 211163 12 | 46:55.39 | 3:48.04 | 211164 | 228267 13 | 50:43.43 | 2:51.33 | 228268 | 241125

Range status and errors

Selected range

Filename D:\Music\Rita Marcotulli - Basilicata Coast To Coast - 2011\Rita Marcotulli - Basilicata Coast To Coast.wav

Peak level 100.0 % Extraction speed 4.6 X Range quality 100.0 % Test CRC F7779852 Copy CRC F7779852 Copy OK

No errors occurred

End of status report

---- CUETools DB Plugin V2.1.6

[CTDB TOCID: Yx5YirzUlq8HNYtmhwvyOSa7yUI-] foundSubmit result: already submittedTrack | CTDB Status 1 | (2/2) Accurately ripped 2 | (2/2) Accurately ripped 3 | (2/2) Accurately ripped 4 | (2/2) Accurately ripped 5 | (2/2) Accurately ripped 6 | (2/2) Accurately ripped 7 | (2/2) Accurately ripped 8 | (2/2) Accurately ripped 9 | (2/2) Accurately ripped 10 | (2/2) Accurately ripped 11 | (2/2) Accurately ripped 12 | (2/2) Accurately ripped 13 | (2/2) Accurately ripped

==== Log checksum 5ACC6CC56ACD96AD0F02FA6AEE07D990B8487A6248D54781C6B23D60AA07F73A ====
-----------------------

DON'T MODIFY THIS FILE

-----------------------

PERFORMER: auCDtect Task Manager, ver. 1.6.0 RC1 build 1.6.0.1Copyright (c) 2008-2010 y-soft. All rights reservedhttp://y-soft.org

ANALYZER: auCDtect: CD records authenticity detector, version 0.8.2Copyright (c) 2004 Oleg Berngardt. All rights reserved.Copyright (c) 2004 Alexander Djourik. All rights reserved.

FILE: Rita Marcotulli - Basilicata Coast To Coast.flac Size: 364442798 Hash: 21CBFB09FE88744183DA889AB2319CD5 Accuracy: -m0 Conclusion: CDDA 100% Signature: 3189AA3E9881167A21C476E87AE14EB8300CE632
Voice: Paolo Briguglia, Rocco Papaleo, Alessandro Gassman, Giovanna Mezzogiorno
Accordion – Luciano Biondini
Double Bass – Enzo Pietropaoli
Drums – Alfredo Golino, Mark Mondesir, Roberto Gatto
Electric Bass – Matthew Garrison
Guitar – Fausto Mesolella
Percussion – Michele Rabbia
Piano, Arranged By – Rita Marcotulli
Saxophone – Andy Sheppard
Trumpet – Fabrizio Bosso


Трекер:  [ 12-Апр-2018 22:36 ]

  

Скачать .torrent

Размер .torrent файла 14 KB


Размер: 348 MB
Хэш (hash) релиза: 9c48499f371127c85598d920a981d94772b0d4c7

Еще никто не оставлял запись к записи скачать торрент Базиликата: от побережья к побережью Basilicata Coast To Coast . Будь первым!

!Обратная связь