The Intelligent Investor, Rev. Ed | Télécharger Part 3 | Majomparádé | General | 2017 Review

Скачать через торрент [iPad] Величайший шоумен The Greatest Showman бесплатно русская версия torrent активатор

Статистика раздачи
Размер:  1.9 GB   |    Зарегистрирован:  3 месяца 9 дней   |    .torrent скачан:  44 раза   |   
Раздают:  1  
   
загрузка...
 
Автор Сообщение

Galfimbul

avatar Galfimbul


Величайший шоумен / The Greatest Showman
«Невозможное возможно»

7.723 / 10 7.80 / 10
Год выпуска: 2017
Страна: США
Жанр: Драма, биография, мюзикл
Продолжительность: 01:44:49

Перевод: Дублированный (iTunes)
Оригинальная аудиодорожка: Есть
Cубтитры: Русские форсированные, Украинские форсированные, Русские, Украинские, Английские
Режиссёр: Майкл Грэйси
Сценарий: Дженни Бикс, Билл Кондон
Продюсер: Питер Чернин, Тония Дэвис, Дэб Дайер
Оператор: Шеймас МакГарви
Композитор: Джон Дебни, Джозеф Трапанезе
Художник: Нэйтан Краули, Лора Боллинджер, Эллен Миройник
Монтаж: Том Кросс, Роберт Даффи, Джо Хатшинг
В ролях: Хью Джекман, Зак Эфрон, Мишель Уильямс, Ребекка Фергюсон, Зендея, Кила Сеттл, Яхья Абдул-Матин II, Остин Джонсон, Эллис Рубин, Скайлар Данн

Бюджет: $84 000 000
Сборы в США: $172 961 890
Сборы в мире: + $247 309 206 = $420 271 096
Сборы в России: $8 211 250

Мировая премьера: 20 декабря 2017
Премьера (РФ): 4 января 2018, «Двадцатый Век Фокс СНГ»

Цифровой релиз: 6 апреля 2018, «Двадцатый Век Фокс СНГ»

Описание: Финеас Тейлор Барнум всегда мечтал войти в историю, но все его занятия не приносили ему удовольствия. И когда, казалось, весь мир обернулся против него, он решает пойти вслед за своей мечтой. Барнум создает завораживающее представление-сенсацию, которое стало рождением мирового шоу-бизнеса.
Качество исходника: BDRemux (BlueBird)
Качество: BDRip
Тип: SD (576p)
Контейнер: M4V
Видео: H.264, 1024x432, 2.40:1, 2 200 Kbps, 23.976 (24000/1001) fps

Аудио 1: Русский/Дублированный (iTunes), AAC / 2.0 / 128 Kbps / 48.0 KHz
Аудио 2: Английский/Оригинальная дорожка , AAC / 2.0 / 128 Kbps / 48.0 KHz
Аудио 3: Украинский/Дублированный (iTunes), AAC / 2.0 / 128 Kbps / 48.0 KHz

Субтитры 1: Русские форсированные
Субтитры 2: Украинские форсированные
Субтитры 3: Русские полные
Субтитры 4: Украинские полные
Субтитры 5: Английские полные
Sort Name: Greatest Showman
XID: Apple:vendor_id:2017-470173
contentID: 1324419603
Copyright: © 2017 Twentieth Century Fox Film Corporation. All rights reserved.
Screenwriters: Дженни Бикс, Билл Кондон
Producers: Питер Чернин, Тония Дэвис, Дэб Дайер
Director: Майкл Грэйси
Cast: Хью Джекман, Зак Эфрон, Мишель Уильямс, Ребекка Фергюсон, Зендея, Кила Сеттл, Яхья Абдул-Матин II, Остин Джонсон, Эллис Рубин, Скайлар Данн
Studio: 20th Century Fox
Rating: 3
Long Description: Финеас Тейлор Барнум всегда мечтал войти в историю, но все его занятия не приносили ему удовольствия. И когда, казалось, весь мир обернулся против него, он решает пойти вслед за своей мечтой. Барнум создает завораживающее представление-сенсацию, которое стало рождением мирового шоу-бизнеса.
Description: Финеас Тейлор Барнум всегда мечтал войти в историю, но все его занятия не приносили ему удовольствия. И когда, казалось, весь мир обернулся против него, он решает пойти вслед за своей мечтой. Барнум создает завораживающее представление-сенсацию, которое стало рождением мирового шоу-бизнеса.
Release Date: 2017-12-20T08:00:00Z
Genre: Drama
Artist: Michael Gracey
Name: The Greatest Showman
General
Complete name                            : /Users/imac/HandBrake/The.Greatest.Showman.(SD).(pk).m4v
Format                                   : MPEG-4
Codec ID                                 : M4V  (M4V /M4A /mp42/isom)
File size                                : 1.90 GiB
Duration                                 : 1h 44mn
Overall bit rate mode                    : Variable
Overall bit rate                         : 2 590 Kbps
Movie name                               : The Greatest Showman
Performer                                : Michael Gracey
Director                                 : Майкл Грэйси
Actor                                    : Хью Джекман / Зак Эфрон / Мишель Уильямс / Ребекка Фергюсон / Зендея / Кила Сеттл / Яхья Абдул-Матин II / Остин Джонсон / Эллис Рубин / Скайлар Данн
Screenplay by                            : Дженни Бикс / Билл Кондон
Producer                                 : Питер Чернин / Тония Дэвис / Дэб Дайер
Production studio                        : 20th Century Fox
Genre                                    : Drama
ContentType                              : Short Film
Description                              : Финеас Тейлор Барнум всегда мечтал войти в историю, но все его занятия не приносили ему удовольствия. И когда, казалось, весь мир обернулся против него, он решает пойти вслед за своей мечтой. Барнум создает завораживающее представление-сенсацию, которое стало рождением мирового шоу-бизнеса.
Recorded date                            : UTC 2017-12-20 08:00:00
Encoded date                             : UTC 2018-04-12 10:33:52
Tagged date                              : UTC 2018-04-12 10:35:42
Copyright                                : © 2017 Twentieth Century Fox Film Corporation. All rights reserved.
Cover                                    : Yes
Rating                                   : None
Title/Sort                               : Greatest Showman
LongDescription                          : Финеас Тейлор Барнум всегда мечтал войти в историю, но все его занятия не приносили ему удовольствия. И когда, казалось, весь мир обернулся против него, он решает пойти вслед за своей мечтой. Барнум создает завораживающее представление-сенсацию, которое стало рождением мирового шоу-бизнеса.
AppleStoreCatalogID                      : 1324419603
Vendor                                   : Apple:vendor_id:2017-470173
ContentRating                            : mpaa|PG|200|

Video #1
ID                                       : 1
Format                                   : AVC
Format/Info                              : Advanced Video Codec
Format profile                           : [email protected]
Format settings                          : CABAC / 9 Ref Frames
Format settings, CABAC                   : Yes
Format settings, ReFrames                : 9 frames
Codec ID                                 : avc1
Codec ID/Info                            : Advanced Video Coding
Duration                                 : 1h 44mn
Source duration                          : 1h 44mn
Bit rate                                 : 2 200 Kbps
Width                                    : 1 024 pixels
Height                                   : 432 pixels
Display aspect ratio                     : 2.40:1
Frame rate mode                          : Variable
Frame rate                               : 23.976 (24000/1001) fps
Minimum frame rate                       : 23.974 fps
Maximum frame rate                       : 23.981 fps
Color space                              : YUV
Chroma subsampling                       : 4:2:0
Bit depth                                : 8 bits
Scan type                                : Progressive
Bits/(Pixel*Frame)                       : 0.207
Stream size                              : 1.61 GiB (85%)
Source stream size                       : 1.61 GiB (85%)
Title                                    : Main Program
Writing library                          : x264 core 148 r2708 86b7198
Encoding settings                        : cabac=1 / ref=9 / deblock=1:0:0 / analyse=0x3:0x113 / me=umh / subme=9 / psy=1 / psy_rd=1.00:0.00 / mixed_ref=1 / me_range=32 / chroma_me=1 / trellis=1 / 8x8dct=1 / cqm=0 / deadzone=21,11 / fast_pskip=1 / chroma_qp_offset=-2 / threads=13 / lookahead_threads=1 / sliced_threads=0 / nr=0 / decimate=1 / interlaced=0 / bluray_compat=0 / constrained_intra=0 / bframes=6 / b_pyramid=2 / b_adapt=2 / b_bias=0 / direct=1 / weightb=1 / open_gop=0 / weightp=2 / keyint=240 / keyint_min=24 / scenecut=40 / intra_refresh=0 / rc_lookahead=40 / rc=2pass / mbtree=1 / bitrate=2200 / ratetol=1.0 / qcomp=0.60 / qpmin=0 / qpmax=69 / qpstep=4 / cplxblur=20.0 / qblur=0.5 / ip_ratio=1.40 / aq=1:1.00
Language                                 : English
Encoded date                             : UTC 2018-04-12 10:33:52
Tagged date                              : UTC 2018-04-12 10:33:58
Color range                              : Limited
Color primaries                          : BT.709
Transfer characteristics                 : BT.709
Matrix coefficients                      : BT.709
Menus                                    : 10,11

Video #2
ID                                       : 11
Format                                   : JPEG
Codec ID                                 : jpeg
Duration                                 : 1h 44mn
Bit rate mode                            : Variable
Bit rate                                 : 428 bps
Width                                    : 640 pixels
Height                                   : 270 pixels
Display aspect ratio                     : 2.40:1
Frame rate mode                          : Variable
Frame rate                               : 0.002 fps
Minimum frame rate                       : 0.001 fps
Maximum frame rate                       : 0.005 fps
Color space                              : YUV
Chroma subsampling                       : 4:2:0
Bit depth                                : 8 bits
Compression mode                         : Lossy
Bits/(Pixel*Frame)                       : 1.238
Stream size                              : 392 KiB (0%)
Title                                    : Chapter Images
Language                                 : English
Default                                  : No
Encoded date                             : UTC 2018-04-12 10:34:06
Tagged date                              : UTC 2018-04-12 10:34:06
Menu For                                 : 1
ColorSpace_ICC                           : RGB

Audio #1
ID                                       : 2
Format                                   : AAC
Format/Info                              : Advanced Audio Codec
Format profile                           : LC
Codec ID                                 : mp4a-40-2
Duration                                 : 1h 44mn
Source duration                          : 1h 44mn
Bit rate mode                            : Variable
Bit rate                                 : 125 Kbps
Maximum bit rate                         : 192 Kbps
Channel(s)                               : 2 channels
Channel positions                        : Front: L R
Sampling rate                            : 48.0 KHz
Frame rate                               : 46.875 fps (1024 SPF)
Compression mode                         : Lossy
Stream size                              : 94.1 MiB (5%)
Source stream size                       : 94.1 MiB (5%)
Title                                    : Russian Stereo
Language                                 : Russian
Default                                  : Yes
Alternate group                          : 1
Encoded date                             : UTC 2018-04-12 10:33:52
Tagged date                              : UTC 2018-04-12 10:34:03
Subtitles                                : 5,7

Audio #2
ID                                       : 3
Format                                   : AAC
Format/Info                              : Advanced Audio Codec
Format profile                           : LC
Codec ID                                 : mp4a-40-2
Duration                                 : 1h 44mn
Source duration                          : 1h 44mn
Bit rate mode                            : Variable
Bit rate                                 : 126 Kbps
Maximum bit rate                         : 216 Kbps
Channel(s)                               : 2 channels
Channel positions                        : Front: L R
Sampling rate                            : 48.0 KHz
Frame rate                               : 46.875 fps (1024 SPF)
Compression mode                         : Lossy
Stream size                              : 94.8 MiB (5%)
Source stream size                       : 94.8 MiB (5%)
Title                                    : English Stereo
Language                                 : English
Default                                  : No
Alternate group                          : 1
Encoded date                             : UTC 2018-04-12 10:33:52
Tagged date                              : UTC 2018-04-12 10:34:03

Audio #3
ID                                       : 4
Format                                   : AAC
Format/Info                              : Advanced Audio Codec
Format profile                           : LC
Codec ID                                 : mp4a-40-2
Duration                                 : 1h 44mn
Source duration                          : 1h 44mn
Bit rate mode                            : Variable
Bit rate                                 : 126 Kbps
Maximum bit rate                         : 211 Kbps
Channel(s)                               : 2 channels
Channel positions                        : Front: L R
Sampling rate                            : 48.0 KHz
Frame rate                               : 46.875 fps (1024 SPF)
Compression mode                         : Lossy
Stream size                              : 94.3 MiB (5%)
Source stream size                       : 94.3 MiB (5%)
Title                                    : Ukrainian Stereo
Language                                 : Ukrainian
Default                                  : No
Alternate group                          : 1
Encoded date                             : UTC 2018-04-12 10:33:52
Tagged date                              : UTC 2018-04-12 10:34:03
Subtitles                                : 6,8

Text #1
ID                                       : 5
Format                                   : Timed Text
Muxing mode                              : sbtl
Codec ID                                 : tx3g
Duration                                 : 1h 36mn
Bit rate mode                            : Variable
Bit rate                                 : 51 bps
Stream size                              : 36.1 KiB (0%)
Title                                    : Russian forced
Language                                 : Russian
Default                                  : Yes
Forced                                   : Yes
Alternate group                          : 2
Encoded date                             : UTC 2018-04-12 10:33:52
Tagged date                              : UTC 2018-04-12 10:33:52
Subtitles For                            : 2
Full Alternative                         : 7

Text #2
ID                                       : 6
Format                                   : Timed Text
Muxing mode                              : sbtl
Codec ID                                 : tx3g
Duration                                 : 1h 36mn
Bit rate mode                            : Variable
Bit rate                                 : 59 bps
Stream size                              : 41.8 KiB (0%)
Title                                    : Ukrainian forced
Language                                 : Ukrainian
Default                                  : No
Forced                                   : Yes
Alternate group                          : 2
Encoded date                             : UTC 2018-04-12 10:33:52
Tagged date                              : UTC 2018-04-12 10:33:52
Subtitles For                            : 4
Full Alternative                         : 8

Text #3
ID                                       : 7
Format                                   : Timed Text
Muxing mode                              : sbtl
Codec ID                                 : tx3g
Duration                                 : 1h 37mn
Bit rate mode                            : Variable
Bit rate                                 : 116 bps
Stream size                              : 82.3 KiB (0%)
Title                                    : Russian full
Language                                 : Russian
Default                                  : No
Forced                                   : No
Alternate group                          : 2
Encoded date                             : UTC 2018-04-12 10:33:52
Tagged date                              : UTC 2018-04-12 10:33:52
Subtitles For                            : 2
Forced Alternative                       : 5

Text #4
ID                                       : 8
Format                                   : Timed Text
Muxing mode                              : sbtl
Codec ID                                 : tx3g
Duration                                 : 1h 37mn
Bit rate mode                            : Variable
Bit rate                                 : 125 bps
Stream size                              : 88.9 KiB (0%)
Title                                    : Ukrainian full
Language                                 : Ukrainian
Default                                  : No
Forced                                   : No
Alternate group                          : 2
Encoded date                             : UTC 2018-04-12 10:33:52
Tagged date                              : UTC 2018-04-12 10:33:52
Subtitles For                            : 4
Forced Alternative                       : 6

Text #5
ID                                       : 9
Format                                   : Timed Text
Muxing mode                              : sbtl
Codec ID                                 : tx3g
Duration                                 : 1h 36mn
Bit rate mode                            : Variable
Bit rate                                 : 96 bps
Stream size                              : 67.8 KiB (0%)
Title                                    : English full
Language                                 : English
Default                                  : No
Forced                                   : No
Alternate group                          : 2
Encoded date                             : UTC 2018-04-12 10:33:52
Tagged date                              : UTC 2018-04-12 10:33:52

Menu #1
00:00:00.000                             : Chapter 1
00:11:42.368                             : Chapter 2
00:24:00.397                             : Chapter 3
00:29:22.761                             : Chapter 4
00:43:31.400                             : Chapter 5
00:50:22.603                             : Chapter 6
00:54:07.286                             : Chapter 7
01:02:18.902                             : Chapter 8
01:07:25.166                             : Chapter 9
01:11:39.629                             : Chapter 10
01:15:10.423                             : Chapter 11
01:20:32.411                             : Chapter 12
01:25:34.963                             : Chapter 13
01:31:17.681                             : Chapter 14
01:40:01.746                             : Chapter 15

Menu #2
ID                                       : 10
Codec ID                                 : text
Duration                                 : 1h 44mn
Language                                 : English
Encoded date                             : UTC 2018-04-12 10:34:03
Tagged date                              : UTC 2018-04-12 10:34:03
Menu For                                 : 1
00:00:00.000                             : Chapter 1
00:11:42.368                             : Chapter 2
00:24:00.397                             : Chapter 3
00:29:22.761                             : Chapter 4
00:43:31.400                             : Chapter 5
00:50:22.603                             : Chapter 6
00:54:07.286                             : Chapter 7
01:02:18.902                             : Chapter 8
01:07:25.166                             : Chapter 9
01:11:39.629                             : Chapter 10
01:15:10.423                             : Chapter 11
01:20:32.411                             : Chapter 12
01:25:34.963                             : Chapter 13
01:31:17.681                             : Chapter 14
01:40:01.746                             : Chapter 15
Bit rate mode                            : VBR
x264 [info]: frame I:1549  Avg QP:11.47  size: 77270
x264 [info]: frame P:36639 Avg QP:14.50  size: 23757
x264 [info]: frame B:112604 Avg QP:16.75  size:  6567
x264 [info]: consecutive B-frames:  2.9%  3.3%  8.4% 40.2% 16.5% 22.6%  6.1%
x264 [info]: mb I  I16..4:  9.8% 66.7% 23.5%
x264 [info]: mb P  I16..4:  1.5%  8.4%  3.0%  P16..4: 33.8% 27.7% 17.7%  0.0%  0.0%    skip: 7.9%
x264 [info]: mb B  I16..4:  0.1%  0.8%  0.4%  B16..8: 37.7% 12.1%  3.8%  direct: 3.8%  skip:41.3%  L0:43.4% L1:44.5% BI:12.1%
x264 [info]: 8x8 transform intra:64.4% inter:69.1%
x264 [info]: coded y,uvDC,uvAC intra: 85.8% 88.8% 74.3% inter: 25.3% 22.8% 6.2%
x264 [info]: i16 v,h,dc,p: 31% 11%  8% 50%
x264 [info]: i8 v,h,dc,ddl,ddr,vr,hd,vl,hu: 13%  9%  6%  9% 13% 14% 12% 13% 12%
x264 [info]: i4 v,h,dc,ddl,ddr,vr,hd,vl,hu: 10%  7%  3% 10% 15% 15% 13% 13% 13%
x264 [info]: i8c dc,h,v,p: 43% 20% 21% 16%
x264 [info]: Weighted P-Frames: Y:3.1% UV:1.7%
x264 [info]: ref P L0: 51.9%  9.2% 15.1%  7.0%  5.1%  4.2%  3.3%  2.1%  1.9%  0.1%  0.0%
x264 [info]: ref B L0: 77.1% 10.6%  5.2%  2.4%  1.9%  1.7%  0.9%  0.3%
x264 [info]: ref B L1: 94.7%  5.3%
x264 [info]: kb/s:2200.02

Релиз подготовлен для просмотра на Apple TV, iPad, iPhone, iPod Touch.
Для просмотра данного релиза на компьютере с ОС Windows рекомендуется использовать VLC media player

Трекер:  [ 12-Апр-2018 14:06 ]

  

Скачать .torrent

Размер .torrent файла 38 KB


Размер: 1.9 GB
Хэш (hash) релиза: c5556b99f1659637a02cb883f896215617db4127

Еще никто не оставлял запись к записи скачать торрент [iPad] Величайший шоумен The Greatest Showman . Будь первым!

!Обратная связь