Black Clover 140
Taken.2017.S02E11.720p.HDTV.x264-BAJSKORV[ettv]

Скачать порно через торрент Blondes Have More Fun Блондинки развлекаются еще больше UnionPeer.org бесплатно онлайн HD качество

Скачать новое порно 2015, 2014 новинки через торрент UnionPeer.org

Порно торрент бесплатно ЮнионПир.орг

Статистика раздачи
Размер:  3.37 GB   |    Зарегистрирован:  8 дней   |    .torrent скачан:  90 раз   |   
Раздают:  1  
   
загрузка...
 
Автор Сообщение

Galfimbul

avatar Galfimbul


Blondes Have More Fun / Блондинки развлекаются еще больше



Год выпуска: 2001
Страна: USA
Жанр: Erotic
Продолжительность: 01:05:09
Язык: English

Режиссер: Marc Cerutti, James Hoffer
Студия: JMH Productions

В ролях: Cory Lane, Nikki Starr, Chloe Jones, Lynn Turner, Paige Summers, Taylor, Gloria-Anne

Описание: Очаровательные блондинки покажут вам все свои прелести.

Меню: Есть. Только меню эпизодов.

Качество: DVD5
Формат: DVD Video
Видео кодек: MPEG2
Аудио кодек: AC3
Видео: MPEG2 Video NTSC 720x480 (4:3) 29.97fps
Аудио: Dolby AC3 48000Hz stereo 224kbps
General
Format : MPEG-PS
File size : 3.31 GiB
Duration : 1 h 5 min
Overall bit rate mode : Variable
Overall bit rate : 7 276 kb/s

Video
ID : 224 (0xE0)
Format : MPEG Video
Format version : Version 2
Format profile : [email protected]
Format settings, BVOP : Yes
Format settings, Matrix : Custom
Format settings, GOP : Variable
Format settings, picture struc : Frame
Duration : 1 h 5 min
Bit rate mode : Variable
Bit rate : 6 907 kb/s
Maximum bit rate : 8 200 kb/s
Width : 720 pixels
Height : 480 pixels
Display aspect ratio : 4:3
Frame rate : 29.970 (30000/1001) FPS
Standard : NTSC
Color space : YUV
Chroma subsampling : 4:2:0
Bit depth : 8 bits
Scan type : Interlaced
Scan order : Top Field First
Compression mode : Lossy
Bits/(Pixel*Frame) : 0.667
Time code of first frame : 00:59:58;00
Time code source : Group of pictures header
GOP, Open/Closed : Closed
Stream size : 3.15 GiB (95%)

Audio
ID : 189 (0xBD)-128 (0x80)
Format : AC-3
Format/Info : Audio Coding 3
Format settings, Endianness : Big
Muxing mode : DVD-Video
Duration : 1 h 5 min
Bit rate mode : Constant
Bit rate : 224 kb/s
Channel(s) : 2 channels
Channel positions : Front: L R
Sampling rate : 48.0 kHz
Frame rate : 31.250 FPS (1536 SPF)
Bit depth : 16 bits
Compression mode : Lossy
Stream size : 104 MiB (3%)
Service kind : Complete Main

Menu


Трекер:  [ 12-Апр-2018 13:50 ]

  

Скачать .torrent

Размер .torrent файла 18 KB


Размер: 3.37 GB
Хэш (hash) релиза: bef0d9da9c3ab4f3e8d9268132daa98f57c16436

Еще никто не оставлял запись к записи скачать торрент Blondes Have More Fun Блондинки развлекаются еще больше . Будь первым!

!Обратная связь