Atanas Srebrev | Register! | Collective Invention

Скачать через торрент Величайший шоумен The Greatest Showman бесплатно русская версия torrent активатор

Статистика раздачи
Размер:  3.66 GB   |    Зарегистрирован:  4 месяца 6 дней   |    .torrent скачан:  22 раза   |   
Раздают:  1  
   
загрузка...
 
Автор Сообщение

Galfimbul

avatar Galfimbul


Величайший шоумен / The Greatest Showman
«Невозможное возможно»

7.723 / 10 7.80 / 10
Год выпуска: 2017
Страна: США
Жанр: Драма, биография, мюзикл
Продолжительность: 01:44:49

Перевод: Дублированный (iTunes)
Оригинальная аудиодорожка: Есть
Cубтитры: Русские форсированные, Украинские форсированные, Русские, Украинские, Английские
Режиссёр: Майкл Грэйси
Сценарий: Дженни Бикс, Билл Кондон
Продюсер: Питер Чернин, Тония Дэвис, Дэб Дайер
Оператор: Шеймас МакГарви
Композитор: Джон Дебни, Джозеф Трапанезе
Художник: Нэйтан Краули, Лора Боллинджер, Эллен Миройник
Монтаж: Том Кросс, Роберт Даффи, Джо Хатшинг
В ролях: Хью Джекман, Зак Эфрон, Мишель Уильямс, Ребекка Фергюсон, Зендея, Кила Сеттл, Яхья Абдул-Матин II, Остин Джонсон, Эллис Рубин, Скайлар Данн

Бюджет: $84 000 000
Сборы в США: $172 961 890
Сборы в мире: + $247 309 206 = $420 271 096
Сборы в России: $8 211 250

Мировая премьера: 20 декабря 2017
Премьера (РФ): 4 января 2018, «Двадцатый Век Фокс СНГ»

Цифровой релиз: 6 апреля 2018, «Двадцатый Век Фокс СНГ»

Описание: Финеас Тейлор Барнум всегда мечтал войти в историю, но все его занятия не приносили ему удовольствия. И когда, казалось, весь мир обернулся против него, он решает пойти вслед за своей мечтой. Барнум создает завораживающее представление-сенсацию, которое стало рождением мирового шоу-бизнеса.
Качество исходника: BDRemux (BlueBird)
Качество: BDRip
Тип: HD (720p)
Контейнер: M4V
Видео: H.264, 1280x536, 2.40:1, 3 500 Kbps, 23.976 (24000/1001) fps

Аудио 1: Русский/Дублированный (iTunes), AAC / 2.0 / 160 Kbps / 48.0 KHz
Аудио 2: Английский/Оригинальная дорожка , AAC / 2.0 / 160 Kbps / 48.0 KHz
Аудио 3: Украинский/Дублированный (iTunes), AAC / 2.0 / 160 Kbps / 48.0 KHz
Аудио 4: Русский/Дублированный (iTunes), AC-3 / 5.1 / 384 Kbps / 48.0 KHz
Аудио 5: Английский/Оригинальная дорожка , AC-3 / 5.1 / 640 Kbps / 48.0 KHz

Субтитры 1: Русские форсированные
Субтитры 2: Украинские форсированные
Субтитры 3: Русские полные
Субтитры 4: Украинские полные
Субтитры 5: Английские полные
Sort Name: Greatest Showman
XID: Apple:vendor_id:2017-470173
contentID: 1324419603
Copyright: © 2017 Twentieth Century Fox Film Corporation. All rights reserved.
Screenwriters: Дженни Бикс, Билл Кондон
Producers: Питер Чернин, Тония Дэвис, Дэб Дайер
Director: Майкл Грэйси
Cast: Хью Джекман, Зак Эфрон, Мишель Уильямс, Ребекка Фергюсон, Зендея, Кила Сеттл, Яхья Абдул-Матин II, Остин Джонсон, Эллис Рубин, Скайлар Данн
Studio: 20th Century Fox
Rating: 3
Long Description: Финеас Тейлор Барнум всегда мечтал войти в историю, но все его занятия не приносили ему удовольствия. И когда, казалось, весь мир обернулся против него, он решает пойти вслед за своей мечтой. Барнум создает завораживающее представление-сенсацию, которое стало рождением мирового шоу-бизнеса.
Description: Финеас Тейлор Барнум всегда мечтал войти в историю, но все его занятия не приносили ему удовольствия. И когда, казалось, весь мир обернулся против него, он решает пойти вслед за своей мечтой. Барнум создает завораживающее представление-сенсацию, которое стало рождением мирового шоу-бизнеса.
Release Date: 2017-12-20T08:00:00Z
Genre: Drama
Artist: Michael Gracey
Name: The Greatest Showman
General
Complete name                            : /Users/imac/HandBrake/The Greatest Showman (720p HD).m4v
Format                                   : MPEG-4
Codec ID                                 : M4V  (M4V /M4A /mp42/isom)
File size                                : 3.66 GiB
Duration                                 : 1h 44mn
Overall bit rate mode                    : Variable
Overall bit rate                         : 5 005 Kbps
Movie name                               : The Greatest Showman
Performer                                : Michael Gracey
Director                                 : Майкл Грэйси
Actor                                    : Хью Джекман / Зак Эфрон / Мишель Уильямс / Ребекка Фергюсон / Зендея / Кила Сеттл / Яхья Абдул-Матин II / Остин Джонсон / Эллис Рубин / Скайлар Данн
Screenplay by                            : Дженни Бикс / Билл Кондон
Producer                                 : Питер Чернин / Тония Дэвис / Дэб Дайер
Production studio                        : 20th Century Fox
Genre                                    : Drama
ContentType                              : Short Film
Description                              : Финеас Тейлор Барнум всегда мечтал войти в историю, но все его занятия не приносили ему удовольствия. И когда, казалось, весь мир обернулся против него, он решает пойти вслед за своей мечтой. Барнум создает завораживающее представление-сенсацию, которое стало рождением мирового шоу-бизнеса.
Recorded date                            : UTC 2017-12-20 08:00:00
Encoded date                             : UTC 2018-04-12 08:45:21
Tagged date                              : UTC 2018-04-12 09:32:10
Copyright                                : © 2017 Twentieth Century Fox Film Corporation. All rights reserved.
Cover                                    : Yes
Rating                                   : None
Title/Sort                               : Greatest Showman
LongDescription                          : Финеас Тейлор Барнум всегда мечтал войти в историю, но все его занятия не приносили ему удовольствия. И когда, казалось, весь мир обернулся против него, он решает пойти вслед за своей мечтой. Барнум создает завораживающее представление-сенсацию, которое стало рождением мирового шоу-бизнеса.
HDVideo                                  : Yes
AppleStoreCatalogID                      : 1324419603
Vendor                                   : Apple:vendor_id:2017-470173
ContentRating                            : mpaa|PG|200|

Video #1
ID                                       : 1
Format                                   : AVC
Format/Info                              : Advanced Video Codec
Format profile                           : [email protected]
Format settings                          : 3 Ref Frames
Format settings, CABAC                   : No
Format settings, ReFrames                : 3 frames
Codec ID                                 : avc1
Codec ID/Info                            : Advanced Video Coding
Duration                                 : 1h 44mn
Source duration                          : 1h 44mn
Bit rate                                 : 3 500 Kbps
Width                                    : 1 280 pixels
Height                                   : 536 pixels
Display aspect ratio                     : 2.40:1
Frame rate mode                          : Variable
Frame rate                               : 23.976 (24000/1001) fps
Minimum frame rate                       : 23.974 fps
Maximum frame rate                       : 23.981 fps
Color space                              : YUV
Chroma subsampling                       : 4:2:0
Bit depth                                : 8 bits
Scan type                                : Progressive
Bits/(Pixel*Frame)                       : 0.213
Stream size                              : 2.56 GiB (70%)
Source stream size                       : 2.56 GiB (70%)
Title                                    : Main Program
Writing library                          : x264 core 148 r2708 86b7198
Encoding settings                        : cabac=0 / ref=3 / deblock=1:-3:-3 / analyse=0x3:0x113 / me=umh / subme=9 / psy=1 / psy_rd=1.00:0.15 / mixed_ref=1 / me_range=32 / chroma_me=1 / trellis=0 / 8x8dct=1 / cqm=0 / deadzone=21,11 / fast_pskip=0 / chroma_qp_offset=-2 / threads=17 / lookahead_threads=1 / sliced_threads=0 / nr=0 / decimate=0 / interlaced=0 / bluray_compat=0 / constrained_intra=0 / bframes=3 / b_pyramid=0 / b_adapt=2 / b_bias=0 / direct=1 / weightb=0 / open_gop=0 / weightp=0 / keyint=240 / keyint_min=24 / scenecut=40 / intra_refresh=0 / rc_lookahead=40 / rc=2pass / mbtree=1 / bitrate=3500 / ratetol=1.0 / qcomp=0.65 / qpmin=0 / qpmax=69 / qpstep=4 / cplxblur=20.0 / qblur=0.5 / vbv_maxrate=9500 / vbv_bufsize=9500 / nal_hrd=none / filler=0 / ip_ratio=1.40 / aq=1:1.10
Language                                 : English
Encoded date                             : UTC 2018-04-12 08:45:21
Tagged date                              : UTC 2018-04-12 08:45:28
Color range                              : Limited
Color primaries                          : BT.709
Transfer characteristics                 : BT.709
Matrix coefficients                      : BT.709
Menus                                    : 12,13

Video #2
ID                                       : 13
Format                                   : JPEG
Codec ID                                 : jpeg
Duration                                 : 1h 44mn
Bit rate mode                            : Variable
Bit rate                                 : 427 bps
Width                                    : 640 pixels
Height                                   : 268 pixels
Display aspect ratio                     : 2.40:1
Frame rate mode                          : Variable
Frame rate                               : 0.002 fps
Minimum frame rate                       : 0.001 fps
Maximum frame rate                       : 0.005 fps
Color space                              : YUV
Chroma subsampling                       : 4:2:0
Bit depth                                : 8 bits
Compression mode                         : Lossy
Bits/(Pixel*Frame)                       : 1.245
Stream size                              : 391 KiB (0%)
Title                                    : Chapter Images
Language                                 : English
Default                                  : No
Encoded date                             : UTC 2018-04-12 08:46:36
Tagged date                              : UTC 2018-04-12 08:46:36
Menu For                                 : 1
ColorSpace_ICC                           : RGB

Audio #1
ID                                       : 2
Format                                   : AAC
Format/Info                              : Advanced Audio Codec
Format profile                           : LC
Codec ID                                 : mp4a-40-2
Duration                                 : 1h 44mn
Source duration                          : 1h 44mn
Bit rate mode                            : Variable
Bit rate                                 : 158 Kbps
Maximum bit rate                         : 224 Kbps
Channel(s)                               : 2 channels
Channel positions                        : Front: L R
Sampling rate                            : 48.0 KHz
Frame rate                               : 46.875 fps (1024 SPF)
Compression mode                         : Lossy
Stream size                              : 118 MiB (3%)
Source stream size                       : 118 MiB (3%)
Title                                    : Russian Stereo
Language                                 : Russian
Default                                  : Yes
Alternate group                          : 1
Encoded date                             : UTC 2018-04-12 08:45:21
Tagged date                              : UTC 2018-04-12 08:46:32
Fallback From                            : 5
Subtitles                                : 7,9

Audio #2
ID                                       : 3
Format                                   : AAC
Format/Info                              : Advanced Audio Codec
Format profile                           : LC
Codec ID                                 : mp4a-40-2
Duration                                 : 1h 44mn
Source duration                          : 1h 44mn
Bit rate mode                            : Variable
Bit rate                                 : 159 Kbps
Maximum bit rate                         : 264 Kbps
Channel(s)                               : 2 channels
Channel positions                        : Front: L R
Sampling rate                            : 48.0 KHz
Frame rate                               : 46.875 fps (1024 SPF)
Compression mode                         : Lossy
Stream size                              : 119 MiB (3%)
Source stream size                       : 119 MiB (3%)
Title                                    : English Stereo
Language                                 : English
Default                                  : No
Alternate group                          : 1
Encoded date                             : UTC 2018-04-12 08:45:21
Tagged date                              : UTC 2018-04-12 08:46:32
Fallback From                            : 6

Audio #3
ID                                       : 4
Format                                   : AAC
Format/Info                              : Advanced Audio Codec
Format profile                           : LC
Codec ID                                 : mp4a-40-2
Duration                                 : 1h 44mn
Source duration                          : 1h 44mn
Bit rate mode                            : Variable
Bit rate                                 : 157 Kbps
Maximum bit rate                         : 254 Kbps
Channel(s)                               : 2 channels
Channel positions                        : Front: L R
Sampling rate                            : 48.0 KHz
Frame rate                               : 46.875 fps (1024 SPF)
Compression mode                         : Lossy
Stream size                              : 118 MiB (3%)
Source stream size                       : 118 MiB (3%)
Title                                    : Ukrainian Stereo
Language                                 : Ukrainian
Default                                  : No
Alternate group                          : 1
Encoded date                             : UTC 2018-04-12 08:45:21
Tagged date                              : UTC 2018-04-12 08:46:32
Subtitles                                : 8,10

Audio #4
ID                                       : 5
Format                                   : AC-3
Format/Info                              : Audio Coding 3
Codec ID                                 : ac-3
Duration                                 : 1h 44mn
Bit rate mode                            : Constant
Bit rate                                 : 384 Kbps
Channel(s)                               : 6 channels
Channel positions                        : Front: L C R, Side: L R, LFE
Sampling rate                            : 48.0 KHz
Frame rate                               : 31.250 fps (1536 SPF)
Bit depth                                : 16 bits
Compression mode                         : Lossy
Stream size                              : 288 MiB (8%)
Title                                    : Russian DD 5.1
Language                                 : Russian
Service kind                             : Complete Main
Default                                  : Inherited From: 2
Alternate group                          : 1
Encoded date                             : UTC 2018-04-12 08:45:21
Tagged date                              : UTC 2018-04-12 08:46:32
Fallback To                              : 2
Subtitles                                : 7,9

Audio #5
ID                                       : 6
Format                                   : AC-3
Format/Info                              : Audio Coding 3
Codec ID                                 : ac-3
Duration                                 : 1h 44mn
Bit rate mode                            : Constant
Bit rate                                 : 640 Kbps
Channel(s)                               : 6 channels
Channel positions                        : Front: L C R, Side: L R, LFE
Sampling rate                            : 48.0 KHz
Frame rate                               : 31.250 fps (1536 SPF)
Bit depth                                : 16 bits
Compression mode                         : Lossy
Stream size                              : 480 MiB (13%)
Title                                    : English DD 5.1
Language                                 : English
Service kind                             : Complete Main
Default                                  : No
Alternate group                          : 1
Encoded date                             : UTC 2018-04-12 08:45:21
Tagged date                              : UTC 2018-04-12 08:46:32
Fallback To                              : 3

Text #1
ID                                       : 7
Format                                   : Timed Text
Muxing mode                              : sbtl
Codec ID                                 : tx3g
Duration                                 : 1h 36mn
Bit rate mode                            : Variable
Bit rate                                 : 51 bps
Stream size                              : 36.1 KiB (0%)
Title                                    : Russian forced
Language                                 : Russian
Default                                  : Yes
Forced                                   : Yes
Alternate group                          : 2
Encoded date                             : UTC 2018-04-12 08:45:21
Tagged date                              : UTC 2018-04-12 08:46:28
Subtitles For                            : 2,5
Full Alternative                         : 9

Text #2
ID                                       : 8
Format                                   : Timed Text
Muxing mode                              : sbtl
Codec ID                                 : tx3g
Duration                                 : 1h 36mn
Bit rate mode                            : Variable
Bit rate                                 : 59 bps
Stream size                              : 41.8 KiB (0%)
Title                                    : Ukrainian forced
Language                                 : Ukrainian
Default                                  : No
Forced                                   : Yes
Alternate group                          : 2
Encoded date                             : UTC 2018-04-12 08:45:21
Tagged date                              : UTC 2018-04-12 08:46:28
Subtitles For                            : 4
Full Alternative                         : 10

Text #3
ID                                       : 9
Format                                   : Timed Text
Muxing mode                              : sbtl
Codec ID                                 : tx3g
Duration                                 : 1h 44mn
Bit rate mode                            : Variable
Bit rate                                 : 107 bps
Stream size                              : 82.3 KiB (0%)
Title                                    : Russian full
Language                                 : Russian
Default                                  : No
Forced                                   : No
Alternate group                          : 2
Encoded date                             : UTC 2018-04-12 08:45:21
Tagged date                              : UTC 2018-04-12 08:46:28
Subtitles For                            : 2,5
Forced Alternative                       : 7

Text #4
ID                                       : 10
Format                                   : Timed Text
Muxing mode                              : sbtl
Codec ID                                 : tx3g
Duration                                 : 1h 44mn
Bit rate mode                            : Variable
Bit rate                                 : 116 bps
Stream size                              : 88.9 KiB (0%)
Title                                    : Ukrainian full
Language                                 : Ukrainian
Default                                  : No
Forced                                   : No
Alternate group                          : 2
Encoded date                             : UTC 2018-04-12 08:45:21
Tagged date                              : UTC 2018-04-12 08:46:28
Subtitles For                            : 4
Forced Alternative                       : 8

Text #5
ID                                       : 11
Format                                   : Timed Text
Muxing mode                              : sbtl
Codec ID                                 : tx3g
Duration                                 : 1h 36mn
Bit rate mode                            : Variable
Bit rate                                 : 96 bps
Stream size                              : 67.8 KiB (0%)
Title                                    : English full
Language                                 : English
Default                                  : No
Forced                                   : No
Alternate group                          : 2
Encoded date                             : UTC 2018-04-12 08:45:21
Tagged date                              : UTC 2018-04-12 08:46:28

Menu #1
00:00:00.000                             : Chapter 1
00:11:42.368                             : Chapter 2
00:24:00.397                             : Chapter 3
00:29:22.761                             : Chapter 4
00:43:31.400                             : Chapter 5
00:50:22.603                             : Chapter 6
00:54:07.286                             : Chapter 7
01:02:18.902                             : Chapter 8
01:07:25.166                             : Chapter 9
01:11:39.629                             : Chapter 10
01:15:10.423                             : Chapter 11
01:20:32.411                             : Chapter 12
01:25:34.963                             : Chapter 13
01:31:17.681                             : Chapter 14
01:40:01.746                             : Chapter 15

Menu #2
ID                                       : 12
Codec ID                                 : text
Duration                                 : 1h 44mn
Language                                 : English
Encoded date                             : UTC 2018-04-12 08:46:32
Tagged date                              : UTC 2018-04-12 08:46:32
Menu For                                 : 1
00:00:00.000                             : Chapter 1
00:11:42.368                             : Chapter 2
00:24:00.397                             : Chapter 3
00:29:22.761                             : Chapter 4
00:43:31.400                             : Chapter 5
00:50:22.603                             : Chapter 6
00:54:07.286                             : Chapter 7
01:02:18.902                             : Chapter 8
01:07:25.166                             : Chapter 9
01:11:39.629                             : Chapter 10
01:15:10.423                             : Chapter 11
01:20:32.411                             : Chapter 12
01:25:34.963                             : Chapter 13
01:31:17.681                             : Chapter 14
01:40:01.746                             : Chapter 15
Bit rate mode                            : VBR
x264 [info]: frame I:1692  Avg QP:13.01  size:101539
x264 [info]: frame P:58549 Avg QP:15.78  size: 31528
x264 [info]: frame B:90551 Avg QP:17.86  size:  8056
x264 [info]: consecutive B-frames:  3.9% 42.7% 16.4% 37.0%
x264 [info]: mb I  I16..4:  7.9% 59.7% 32.5%
x264 [info]: mb P  I16..4:  1.6%  6.0%  3.0%  P16..4: 44.2% 28.4% 12.1%  0.0%  0.0%    skip: 4.7%
x264 [info]: mb B  I16..4:  0.1%  0.7%  0.4%  B16..8: 44.8% 12.6%  2.0%  direct: 3.2%  skip:36.2%  L0:40.0% L1:51.9% BI: 8.2%
x264 [info]: 8x8 transform intra:57.1% inter:41.0%
x264 [info]: coded y,uvDC,uvAC intra: 84.1% 86.1% 69.8% inter: 23.1% 22.5% 14.4%
x264 [info]: i16 v,h,dc,p: 42% 11%  8% 39%
x264 [info]: i8 v,h,dc,ddl,ddr,vr,hd,vl,hu: 13%  7%  7% 10% 13% 14% 12% 12% 10%
x264 [info]: i4 v,h,dc,ddl,ddr,vr,hd,vl,hu: 13%  7%  4% 12% 16% 16% 13% 11%  9%
x264 [info]: i8c dc,h,v,p: 50% 16% 22% 13%
x264 [info]: ref P L0: 73.5% 16.1% 10.5%
x264 [info]: ref B L0: 82.2% 17.8%
x264 [info]: kb/s:3494.42

Релиз подготовлен для просмотра на Apple TV, iPad, iPhone, iPod Touch.
Для просмотра данного релиза на компьютере с ОС Windows рекомендуется использовать VLC media player

Трекер:  [ 12-Апр-2018 13:06 ]

  

Скачать .torrent

Размер .torrent файла 37 KB


Размер: 3.66 GB
Хэш (hash) релиза: f9520e4e49629c2b9c8e25d1fbbab8ad4247df25

Еще никто не оставлял запись к записи скачать торрент Величайший шоумен The Greatest Showman . Будь первым!

!Обратная связь