Pitbull I Know You Want Me
Lost Love in Times (Cantonese) - 醉玲瓏Lost Love in Times (Cantonese)

Скачать порно через торрент Aria & Friends Ария & Друзья UnionPeer.org бесплатно онлайн HD качество

Скачать новое порно 2015, 2014 новинки через торрент UnionPeer.org

Порно торрент бесплатно ЮнионПир.орг

Статистика раздачи
Размер:  2.71 GB   |    Зарегистрирован:  9 дней   |    .torrent скачан:  171 раз   |   
Раздают:  1  
   
загрузка...
 
Автор Сообщение

Galfimbul

avatar Galfimbul


Aria & Friends / Ария & Друзья



Год выпуска: 2002
Страна: USA
Жанр: Erotic
Продолжительность: 00:58:25
Язык: English

Режиссер: James Hoffer
Студия: JMH Productions

В ролях: Julie, Goldie, Lexi, Nikita, Aria, Mariah, Aimee, Pantera

Описание: Aria и её подружки покажут вам всё чем их наградила мать-природа.

Качество: DVD5
Формат: DVD Video
Видео кодек: MPEG2
Аудио кодек: AC3
Видео: MPEG2 Video NTSC 720x480 (4:3) 29.97fps
Аудио: Dolby AC3 48000Hz stereo 224kbps
General
Format : MPEG-PS
File size : 2.67 GiB
Duration : 58 min 24 s
Overall bit rate mode : Variable
Overall bit rate : 6 550 kb/s

Video
ID : 224 (0xE0)
Format : MPEG Video
Format version : Version 2
Format profile : [email protected]
Format settings, BVOP : Yes
Format settings, Matrix : Custom
Format settings, GOP : M=3, N=15
Format settings, picture struc : Frame
Duration : 58 min 24 s
Bit rate mode : Variable
Bit rate : 6 196 kb/s
Maximum bit rate : 8 000 kb/s
Width : 720 pixels
Height : 480 pixels
Display aspect ratio : 4:3
Frame rate : 29.970 (30000/1001) FPS
Standard : NTSC
Color space : YUV
Chroma subsampling : 4:2:0
Bit depth : 8 bits
Scan type : Interlaced
Scan order : Top Field First
Compression mode : Lossy
Bits/(Pixel*Frame) : 0.598
Time code of first frame : 00:59:58;00
Time code source : Group of pictures header
GOP, Open/Closed : Closed
Stream size : 2.53 GiB (95%)

Audio
ID : 189 (0xBD)-128 (0x80)
Format : AC-3
Format/Info : Audio Coding 3
Format settings, Endianness : Big
Muxing mode : DVD-Video
Duration : 58 min 24 s
Bit rate mode : Constant
Bit rate : 224 kb/s
Channel(s) : 2 channels
Channel positions : Front: L R
Sampling rate : 48.0 kHz
Frame rate : 31.250 FPS (1536 SPF)
Bit depth : 16 bits
Compression mode : Lossy
Stream size : 93.6 MiB (3%)
Service kind : Complete Main

Menu


Трекер:  [ 12-Апр-2018 12:40 ]

  

Скачать .torrent

Размер .torrent файла 28 KB


Размер: 2.71 GB
Хэш (hash) релиза: 71157153b5fcaca111c6576c712a77e7e5e7eeb4

Еще никто не оставлял запись к записи скачать торрент Aria & Friends Ария & Друзья . Будь первым!

!Обратная связь