Chris Owens
The Greatest Showman Original Motion Picture Soundtrack

Скачать порно через торрент Anna Nicole Smith: Exposed Анна Николь Смит: Напоказ UnionPeer.org бесплатно онлайн HD качество

Скачать новое порно 2015, 2014 новинки через торрент UnionPeer.org

Порно торрент бесплатно ЮнионПир.орг

Статистика раздачи
Размер:  3.67 GB   |    Зарегистрирован:  12 дней   |    .torrent скачан:  133 раза   |   
Раздают:  1  
   
загрузка...
 
Автор Сообщение

Galfimbul

avatar Galfimbul


Anna Nicole Smith: Exposed / Анна Николь Смит: Напоказ



Год выпуска: 1998
Страна: USA
Жанр: Erotic
Продолжительность: 00:53:25
Язык: English

Режиссер: Raymond Martino, Anna Nicole Smith
Студия: Fantasy Blue

В ролях: Anna Nicole Smith, Morgan Daniel, Ahmo Hight, Jason Schnuit, Chris Gann

Описание: Anna’s talents are just explored inside the house, oh no, she tests out the shock absorbers on her limo driver [Morgan Daniel] all the while withering around like she’s got ants in her pants. If this is how she has sex with her husband, we now know why he went out with a smile. If you are a breast man, you’ll want to fast track it to this interlude – in the words of the Clerk X [the clerk that wishes to remain nameless] “I was never breast fed as a child, look at what I missed”. The sex – or the illusion of sex – is mild and as I mentioned before, there’s no visible penetration or contact oral sex. Things pick up a little when Anna and a well dress diplomat go at it but most of what you see is foreplay – if it can be called that – and the groping of Anna’s best friends, her breasts. It’s pretty sad when the girl on girl action is hotter than all of the male scenes combined, yes, there is nudity but after a while breasts are just breasts – regardless of how large, round and plump they may be.

Доп.Материал: Бонус в виде превью нескольких эротических фильмов.

Качество: DVD5
Формат: DVD Video
Видео кодек: MPEG2
Аудио кодек: AC3
Видео: MPEG2 Video NTSC 720x480 (4:3) 29.97fps
Аудио: Dolby AC3 48000Hz stereo 192kbps
Общее
Полное имя : P:\Erotic - DVD\Anna Nicole Smith - Exposed [...]\VIDEO_TS\VIDEO_TS.BUP
Формат : DVD Video
Профиль формата : Menu
Размер файла : 8,00 Кбайт
Режим общего битрейта : Переменный
FileExtension_Invalid : ifo

Видео
Идентификатор : 224 (0xE0)
Формат : MPEG Video
Версия формата : Version 1
Вид битрейта : Переменный
Ширина : 720 пикселей
Высота : 480 пикселей
Соотношение сторон : 4:3
Частота кадров : 29,970 (29970/1000) кадров/сек
Стандарт вещания : NTSC
Метод сжатия : С потерями

Общее
Полное имя : P:\Erotic - DVD\Anna Nicole Smith - Exposed [...]\VIDEO_TS\VIDEO_TS.IFO
Формат : DVD Video
Профиль формата : Menu
Размер файла : 8,00 Кбайт
Режим общего битрейта : Переменный

Видео
Идентификатор : 224 (0xE0)
Формат : MPEG Video
Версия формата : Version 1
Вид битрейта : Переменный
Ширина : 720 пикселей
Высота : 480 пикселей
Соотношение сторон : 4:3
Частота кадров : 29,970 (29970/1000) кадров/сек
Стандарт вещания : NTSC
Метод сжатия : С потерями

Общее
Полное имя : P:\Erotic - DVD\Anna Nicole Smith - Exposed [...]\VIDEO_TS\VTS_01_0.BUP
Формат : DVD Video
Профиль формата : Program
Размер файла : 102 Кбайт
Продолжительность : 53 м. 24 с.
Режим общего битрейта : Переменный
Общий поток : 261 бит/сек
FileExtension_Invalid : ifo

Видео
Идентификатор : 224 (0xE0)
Формат : MPEG Video
Версия формата : Version 2
Продолжительность : 53 м. 24 с.
Вид битрейта : Переменный
Ширина : 720 пикселей
Высота : 480 пикселей
Соотношение сторон : 4:3
Частота кадров : 29,970 (29970/1000) кадров/сек
Стандарт вещания : NTSC
Метод сжатия : С потерями

Аудио
Идентификатор : 128 (0x80)
Формат : AC-3
Формат/Информация : Audio Coding 3
Продолжительность : 53 м. 24 с.
Каналы : 2 канала
Частота : 48,0 КГц
Метод сжатия : С потерями

Меню #1
Продолжительность : 53 м. 24 с.
00:00:00.000 : Chapter 1
00:06:09.100 : Chapter 2
00:10:37.600 : Chapter 3
00:15:39.100 : Chapter 4
00:23:29.700 : Chapter 5
00:30:36.666 : Chapter 6
00:41:22.866 : Chapter 7
00:52:18.466 : Chapter 8
List (Audio) : 0

Меню #2
Продолжительность : 12 с. 0 мс.
00:00:00.000 : Chapter 1
List (Audio) : 0

Общее
Полное имя : P:\Erotic - DVD\Anna Nicole Smith - Exposed [...]\VIDEO_TS\VTS_01_0.IFO
Формат : DVD Video
Профиль формата : Program
Размер файла : 102 Кбайт
Продолжительность : 53 м. 24 с.
Режим общего битрейта : Переменный
Общий поток : 261 бит/сек

Видео
Идентификатор : 224 (0xE0)
Формат : MPEG Video
Версия формата : Version 2
Продолжительность : 53 м. 24 с.
Вид битрейта : Переменный
Ширина : 720 пикселей
Высота : 480 пикселей
Соотношение сторон : 4:3
Частота кадров : 29,970 (29970/1000) кадров/сек
Стандарт вещания : NTSC
Метод сжатия : С потерями

Аудио
Идентификатор : 128 (0x80)
Формат : AC-3
Формат/Информация : Audio Coding 3
Продолжительность : 53 м. 24 с.
Каналы : 2 канала
Частота : 48,0 КГц
Метод сжатия : С потерями

Меню #1
Продолжительность : 53 м. 24 с.
00:00:00.000 : Chapter 1
00:06:09.100 : Chapter 2
00:10:37.600 : Chapter 3
00:15:39.100 : Chapter 4
00:23:29.700 : Chapter 5
00:30:36.666 : Chapter 6
00:41:22.866 : Chapter 7
00:52:18.466 : Chapter 8
List (Audio) : 0

Меню #2
Продолжительность : 12 с. 0 мс.
00:00:00.000 : Chapter 1
List (Audio) : 0

Общее
Полное имя : P:\Erotic - DVD\Anna Nicole Smith - Exposed [...]\VIDEO_TS\VTS_01_0.VOB
Формат : MPEG-PS
Размер файла : 145 Мбайт
Продолжительность : 29 с. 997 мс.
Общий поток : 40,6 Мбит/сек
Библиотека кодирования : encoded by TMPGEnc b12j

Видео
Идентификатор : 224 (0xE0)
Формат : MPEG Video
Версия формата : Version 2
Профиль формата : [email protected]
Настройки формата : CustomMatrix / BVOP
Параметр BVOP формата : Да
Параметр матрицы формата : Выборочная
Параметр GOP формата : M=3, N=12
Структура изображения : Frame
Продолжительность : 29 с. 997 мс.
Вид битрейта : Постоянный
Битрейт : 39,6 Мбит/сек
Максимальный битрейт : 7500 Кбит/сек
Ширина : 720 пикселей
Высота : 480 пикселей
Соотношение сторон : 4:3
Частота кадров : 29,970 (30000/1001) кадров/сек
Стандарт вещания : NTSC
Цветовое пространство : YUV
Субдискретизация насыщенности : 4:2:0
Битовая глубина : 8 бит
Тип развёртки : Чересстрочная
Порядок развёртки : Верхнее поле первое
Метод сжатия : С потерями
Бит/(Пиксели*Кадры) : 3.821
Временной код первого кадра : 00:00:00:00
Оригинал временного кода : Group of pictures header
GOP, открыто/закрыто : Открыто
GOP, открыто/закрыто на первом кадре : Закрыто
Размер потока : 142 Мбайт (98%)
Библиотека кодирования : TMPGEnc b12j
Основные цвета : BT.601 PAL
Характеристики трансфера : BT.470 System B, BT.470 System G
Коэффициенты матрицы : BT.470 System B, BT.470 System G

Аудио
Идентификатор : 189 (0xBD)-128 (0x80)
Формат : AC-3
Формат/Информация : Audio Coding 3
Режим смешивания : DVD-Video
Продолжительность : 5 с. 216 мс.
Вид битрейта : Постоянный
Битрейт : 192 Кбит/сек
Каналы : 2 канала
Расположение каналов : Front: L R
Частота : 48,0 КГц
Частота кадров : 31,250 кадров/сек (1536 SPF)
Битовая глубина : 16 бит
Метод сжатия : С потерями
Размер потока : 122 Кбайт (0%)
ServiceKind/String : Complete Main

Текст
Идентификатор : 189 (0xBD)-32 (0x20)
Формат : RLE
Формат/Информация : Run-length encoding
Режим смешивания : DVD-Video

Меню

Общее
Полное имя : P:\Erotic - DVD\Anna Nicole Smith - Exposed [...]\VIDEO_TS\VTS_01_1.VOB
Формат : MPEG-PS
Размер файла : 1024 Мбайт
Продолжительность : 27 с. 327 мс.
Режим общего битрейта : Постоянный
Общий поток : 314 Мбит/сек
Библиотека кодирования : encoded by TMPGEnc b12j

Видео
Идентификатор : 224 (0xE0)
Формат : MPEG Video
Версия формата : Version 2
Профиль формата : [email protected]
Настройки формата : CustomMatrix / BVOP
Параметр BVOP формата : Да
Параметр матрицы формата : Выборочная
Параметр GOP формата : Variable
Структура изображения : Frame
Продолжительность : 27 с. 327 мс.
Вид битрейта : Постоянный
Битрейт : 308 Мбит/сек
Максимальный битрейт : 8700 Кбит/сек
Ширина : 720 пикселей
Высота : 480 пикселей
Соотношение сторон : 4:3
Частота кадров : 29,970 (30000/1001) кадров/сек
Стандарт вещания : NTSC
Цветовое пространство : YUV
Субдискретизация насыщенности : 4:2:0
Битовая глубина : 8 бит
Тип развёртки : Чересстрочная
Порядок развёртки : Верхнее поле первое
Метод сжатия : С потерями
Бит/(Пиксели*Кадры) : 29.722
Временной код первого кадра : 00:00:00:00
Оригинал временного кода : Group of pictures header
GOP, открыто/закрыто : Открыто
GOP, открыто/закрыто на первом кадре : Закрыто
Размер потока : 1003 Мбайт (98%)
Библиотека кодирования : TMPGEnc b12j
Основные цвета : BT.601 PAL
Характеристики трансфера : BT.470 System B, BT.470 System G
Коэффициенты матрицы : BT.470 System B, BT.470 System G

Аудио
Идентификатор : 189 (0xBD)-128 (0x80)
Формат : AC-3
Формат/Информация : Audio Coding 3
Режим смешивания : DVD-Video
Продолжительность : 14 с. 176 мс.
Вид битрейта : Постоянный
Битрейт : 192 Кбит/сек
Каналы : 2 канала
Расположение каналов : Front: L R
Частота : 48,0 КГц
Частота кадров : 31,250 кадров/сек (1536 SPF)
Битовая глубина : 16 бит
Метод сжатия : С потерями
Размер потока : 332 Кбайт (0%)
ServiceKind/String : Complete Main

Меню

Общее
Полное имя : P:\Erotic - DVD\Anna Nicole Smith - Exposed [...]\VIDEO_TS\VTS_01_2.VOB
Формат : MPEG-PS
Размер файла : 1024 Мбайт
Продолжительность : 15 м. 49 с.
Режим общего битрейта : Переменный
Общий поток : 9046 Кбит/сек

Видео
Идентификатор : 224 (0xE0)
Формат : MPEG Video
Версия формата : Version 2
Профиль формата : [email protected]
Настройки формата : CustomMatrix / BVOP
Параметр BVOP формата : Да
Параметр матрицы формата : Выборочная
Параметр GOP формата : Variable
Структура изображения : Frame
Продолжительность : 15 м. 49 с.
Вид битрейта : Переменный
Битрейт : 8674 Кбит/сек
Ширина : 352 пикселя
Высота : 480 пикселей
Соотношение сторон : 4:3
Частота кадров : 29,970 (30000/1001) кадров/сек
Стандарт вещания : NTSC
Цветовое пространство : YUV
Субдискретизация насыщенности : 4:2:0
Битовая глубина : 8 бит
Тип развёртки : Чересстрочная
Порядок развёртки : Верхнее поле первое
Метод сжатия : С потерями
Бит/(Пиксели*Кадры) : 1.713
Временной код первого кадра : 01:00:27;07
Оригинал временного кода : Group of pictures header
GOP, открыто/закрыто : Открыто
Размер потока : 982 Мбайт (96%)

Аудио
Идентификатор : 189 (0xBD)-128 (0x80)
Формат : AC-3
Формат/Информация : Audio Coding 3
Режим смешивания : DVD-Video
Продолжительность : 15 м. 49 с.
Вид битрейта : Постоянный
Битрейт : 192 Кбит/сек
Каналы : 2 канала
Расположение каналов : Front: L R
Частота : 48,0 КГц
Частота кадров : 31,250 кадров/сек (1536 SPF)
Битовая глубина : 16 бит
Метод сжатия : С потерями
Задержка видео : -162 мс.
Размер потока : 21,7 Мбайт (2%)
ServiceKind/String : Complete Main

Меню

Общее
Полное имя : P:\Erotic - DVD\Anna Nicole Smith - Exposed [...]\VIDEO_TS\VTS_01_3.VOB
Формат : MPEG-PS
Размер файла : 1024 Мбайт
Продолжительность : 23 м. 59 с.
Режим общего битрейта : Переменный
Общий поток : 5967 Кбит/сек

Видео
Идентификатор : 224 (0xE0)
Формат : MPEG Video
Версия формата : Version 2
Профиль формата : [email protected]
Настройки формата : CustomMatrix / BVOP
Параметр BVOP формата : Да
Параметр матрицы формата : Выборочная
Параметр GOP формата : M=3, N=12
Структура изображения : Frame
Продолжительность : 23 м. 59 с.
Вид битрейта : Переменный
Битрейт : 5656 Кбит/сек
Ширина : 720 пикселей
Высота : 480 пикселей
Соотношение сторон : 4:3
Частота кадров : 29,970 (30000/1001) кадров/сек
Стандарт вещания : NTSC
Цветовое пространство : YUV
Субдискретизация насыщенности : 4:2:0
Битовая глубина : 8 бит
Тип развёртки : Чересстрочная
Порядок развёртки : Верхнее поле первое
Метод сжатия : С потерями
Бит/(Пиксели*Кадры) : 0.546
Временной код первого кадра : 01:16:16;00
Оригинал временного кода : Group of pictures header
GOP, открыто/закрыто : Открыто
Размер потока : 970 Мбайт (95%)

Аудио
Идентификатор : 189 (0xBD)-128 (0x80)
Формат : AC-3
Формат/Информация : Audio Coding 3
Режим смешивания : DVD-Video
Продолжительность : 23 м. 59 с.
Вид битрейта : Постоянный
Битрейт : 192 Кбит/сек
Каналы : 2 канала
Расположение каналов : Front: L R
Частота : 48,0 КГц
Частота кадров : 31,250 кадров/сек (1536 SPF)
Битовая глубина : 16 бит
Метод сжатия : С потерями
Задержка видео : -210 мс.
Размер потока : 32,9 Мбайт (3%)
ServiceKind/String : Complete Main

Меню

Общее
Полное имя : P:\Erotic - DVD\Anna Nicole Smith - Exposed [...]\VIDEO_TS\VTS_01_4.VOB
Формат : MPEG-PS
Размер файла : 528 Мбайт
Продолжительность : 13 м. 11 с.
Режим общего битрейта : Переменный
Общий поток : 5595 Кбит/сек

Видео
Идентификатор : 224 (0xE0)
Формат : MPEG Video
Версия формата : Version 2
Профиль формата : [email protected]
Настройки формата : CustomMatrix / BVOP
Параметр BVOP формата : Да
Параметр матрицы формата : Выборочная
Параметр GOP формата : M=3, N=12
Структура изображения : Frame
Продолжительность : 13 м. 11 с.
Вид битрейта : Переменный
Битрейт : 5292 Кбит/сек
Ширина : 720 пикселей
Высота : 480 пикселей
Соотношение сторон : 4:3
Частота кадров : 29,970 (30000/1001) кадров/сек
Стандарт вещания : NTSC
Цветовое пространство : YUV
Субдискретизация насыщенности : 4:2:0
Битовая глубина : 8 бит
Тип развёртки : Чересстрочная
Порядок развёртки : Верхнее поле первое
Метод сжатия : С потерями
Бит/(Пиксели*Кадры) : 0.511
Временной код первого кадра : 01:40:15;08
Оригинал временного кода : Group of pictures header
GOP, открыто/закрыто : Открыто
Размер потока : 499 Мбайт (95%)

Аудио
Идентификатор : 189 (0xBD)-128 (0x80)
Формат : AC-3
Формат/Информация : Audio Coding 3
Режим смешивания : DVD-Video
Продолжительность : 13 м. 11 с.
Вид битрейта : Постоянный
Битрейт : 192 Кбит/сек
Каналы : 2 канала
Расположение каналов : Front: L R
Частота : 48,0 КГц
Частота кадров : 31,250 кадров/сек (1536 SPF)
Битовая глубина : 16 бит
Метод сжатия : С потерями
Задержка видео : -155 мс.
Размер потока : 18,1 Мбайт (3%)
ServiceKind/String : Complete Main

Меню


Трекер:  [ 12-Апр-2018 12:20 ]

  

Скачать .torrent

Размер .torrent файла 37 KB


Размер: 3.67 GB
Хэш (hash) релиза: 8e9873472740c223b6c3375edd931b9f7bda4847

Еще никто не оставлял запись к записи скачать торрент Anna Nicole Smith: Exposed Анна Николь Смит: Напоказ . Будь первым!

!Обратная связь