Download Lagu Cakra Khan - Kekasih Bayangan | Live Covered By Della Firdatia Feat. Riza | THE VAMPIRE DIARIES | HD Views: 296 Force 2(2016)

Скачать через торрент [ATV3] Тайное окно Secret Window бесплатно русская версия torrent активатор

Статистика раздачи
Размер:  7.82 GB   |    Зарегистрирован:  3 месяца 8 дней   |    .torrent скачан:  51 раз   |   
Раздают:  1  
   
загрузка...
 
Автор Сообщение

Galfimbul

avatar Galfimbul


Тайное окно / Secret Window
"The most important part of a story is the ending"


Год выпуска: 2004
Страна: США
Жанр: ужасы, триллер, детектив
Продолжительность: 96 мин.

Перевод: Профессиональный дублированный перевод, двухголосый закадровый, многоголосый закадровый перевод и одноголосый закадровый авторский перевод
Оригинальная аудиодорожка: Есть
Cубтитры: Русские полные и английские полные

Режиссёр: Дэвид Кепп
Сценарий: Дэвид Кепп, Стивен Кинг
Продюсер: Гэвин Полон, Эзра Свердлоу
Оператор: Фред Мерфи
Композитор: Филип Гласс, Джеф Дзанелли
Художник: Ховард Каммингс, Жиль Аирд, Одетт Гадури
Монтаж: Джилл Сэвитт
В ролях: Джонни Депп, Джон Туртурро, Мария Белло, Тимоти Хаттон, Чарльз С. Даттон, Лен Кариу, Джоан Хини, Джон Данн-Хилл, Власта Врана, Мэтт Холлэнд
Роли дублировали: Александр Баргман, Юрий Лазарев, Александра Кожевникова, Станислав Концевич, Вадим Гущин

Бюджет: $40 000 000
Сборы в США: $48 022 900
Сборы в мире: + $44 890 271 = $92 913 171
Сборы в России: $1 250 000

Мировая премьера: 12 марта 2004
Релиз на DVD: 28 октября 2010, Columbia/Sony

Описание: Фильм представляет собой экранизацию романа самого известного автора триллеров - Стивена Кинга. На этот раз картина повествует о талантливом и успешном писателе Морте Рейни, который переживает не самые лучшие времена в своей жизни. После того как он застал свою жену в постели с другим мужчиной и пережил утомительные формальности развода, Морт решает удалиться от дел, переехать за город и в тишине сельской жизни бороться с творческим кризисом, постигшим его.
И все было хорошо до тех пор, пока однажды ночью в его дом не ворвался незнакомец, обвинивший Морта в плагиате. Джон Шутер был слишком похож на психопата, а его пистолет - на настоящий, чтобы Морту пришла в голову идея с ним спорить. И когда писатель попытался убедить собеседника в своей правоте, показав ему рукописи книги, он столкнулся с небольшой проблемой - рукопись бесследно исчезла.
Качество исходника: WEB-DL 1080p (HDClub)
Качество: WEB-DL
Тип: 1080p
Контейнер: m4v
Видео: 1920x1080 at 23.976 fps, MPEG-4 AVC, ~7900 kbps avg
Аудио#1: Russian: 48 kHz, ААС, 2/0 (L,R), ~160.00 kbps avg |Дубляж, R5|
Аудио#2: Russian: 48 kHz, ААС, 2/0 (L,R), ~160.00 kbps avg |Двухголосый закадровый, Tycoon|
Аудио#3: Russian: 48 kHz, ААС, 2/0 (L,R), ~160.00 kbps avg |Многоголосый закадровый|
Аудио#4: Russian: 48 kHz, ААС, 2/0 (L,R), ~160.00 kbps avg |Одноголосый закадровый, Е. Рудой|
Аудио#5: Ukrainian: 48 kHz, ААС, 2/0 (L,R), ~160.00 kbps avg |Многоголосый закадровый, Интер|
Аудио#6: English: 48 kHz, ААС, 2/0 (L,R), ~160.00 kbps avg
Аудио#7: English: 48 kHz, ААС, 2/0 (L,R), ~160.00 kbps avg |Commentary by director and screenwriter David Koepp|
Аудио#8: Russian: 48 kHz, AC3, 3/2 (L,C,R,l,r) + LFE ch, ~448.00 kbps avg |Дубляж, R5|
Аудио#9: Russian: 48 kHz, AC3, 3/2 (L,C,R,l,r) + LFE ch, ~448.00 kbps avg |Двухголосый закадровый, Tycoon|
Аудио#10: Russian: 48 kHz, AC3, 3/2 (L,C,R,l,r) + LFE ch, ~448.00 kbps avg |Многоголосый закадровый|
Аудио#11: Russian: 48 kHz, AC3, 3/2 (L,C,R,l,r) + LFE ch, ~640.00 kbps avg |Одноголосый закадровый, Е. Рудой|
Аудио#12: English: 48 kHz, AC3, 3/2 (L,C,R,l,r) + LFE ch, ~640.00 kbps avg
Субтитры №1: Russian: |Полные, ver. 1|
Субтитры №2: Russian: |Полные, ver. 2|
Субтитры №3: English: |Полные|
Фильм снят по мотивам повести Стивена Кинга «Секретное окно, секретный сад» (Secret Window, Secret Garden, 1990), вошедшую в сборник «Четыре после полуночи».
В одной из сцен можно заметить, что Морт читает книгу Хантера С. Томпсона(раскрытая книга лежит на журнальном столике). Джонни Депп был знаком с Томпсоном и играл в двух экранизациях его произведений.
На последних секундах титров можно услышать в исполнении Деппа короткую песенку про коржик, обозначенную как «Shortnin» bread» Traditional.
Джон Туртурро принял решение поучаствовать в проекте после беседы со своим сыном, страстным поклонником творчества Стивена Кинга.
Имя главного героя — Морт, на латыни это слово обозначает смерть.
Премьера картины была сдвинута примерно на месяц с целью заработать как можно большую кассу на волне успеха картины «Пираты Карибского моря: Проклятие Черной жемчужины » (2003), роль Джека Воробья в которой принесла Джонни Деппу первую номинацию на Оскар.
Одну из ролей мог получить Винг Реймз, причина отказа стандартна — несовпадение графиков съемок.
Фильм снимался в нескольких городах Канады (провинция Квебек) и Нью-Йорке.
Съемки фильма начались 14 июля 2003 года, а закончились в октябре того же года.
На руке у главного героя часы TAG Heuer 6000.
В самой первой сцене картины, когда герой Джонни Деппа врывается в номер мотеля и устраивает истерику, лица актеров Марии Белло и Тимоти Хаттона выглядят крайне испуганными. Режиссер фильма Дэвид Кепп решил добиться подобного натурализма, применив эффект неожиданности, — он заставил актеров лежать в кровати в течение 15 минут. Поэтому в момент, когда Джонни Депп ворвался в номер, актеры были действительно напуганы.
Эпизод, в котором Морт Рейни в черной широкополой шляпе глядит в зеркало и видит в нем свое изображение сзади, является ссылкой на работы бельгийского художника-сюрреалиста Магритта, который часто изображал на свои полотнах таинственного человека в точно такой же шляпе.
В оригинале у Кинга умер Морт Рейни, а жена и ее любовник остались в живых. Также в оригинале у Морта Рейни был кот, а не собака.
Триллер (Сергей Кудрявцев 5.5/10)

Тема литературного плагиата или же читательских претензий к авторам по поводу развития сюжета, а тем более — относительно финалов рассказываемых ими историй уже не раз возникала в творчестве Стивена Кинга, который, как это ни забавно, сам может быть заподозрен в использовании чужих идей и замыслов (во всяком случае, подобные претензии появляются время от времени). И поначалу кажется, что «Тайное окно» — некая вариация «Мизери», одной из самых удачных экранизаций кинговских сочинений.

Ведь фанатичный Джон Шутер, готовый абсолютно на всё, в том числе на убийство собаки, поджог дома и даже на жестокую расправу с людьми, напоминает шизофреничку Мизери, которая взяла в заложники любимого писателя, желавшего прикончить в своём очередном романе главную героиню. Но Шутер хочет, чтобы автор детективных рассказов Морт Рэйни не только изменил окончание новеллы «Тайное окно», а ещё и признал наличие плагиата, потому что считает именно себя автором этой истории. Напрасно Рэйни пытается уверить, что его сочинение было напечатано на два года ранее даты создания Шутером собственного опуса…

Внимательный зритель, разумеется, станет догадываться, что тут скрыт какой-то подвох, и подлинная тайна заключается отнюдь не в том, крал или не крал чужой сюжет уже исписавшийся детективщик. Он сам пребывает в совершенно разобранном состоянии после того, как полгода назад застал жену Эми в постели с другим мужчиной, и теперь бесцельно и тупо проводит время один-одинёшенек в загородном домике, не в силах уже ничего придумать на личном «ноутбуке». Уязвлённое самолюбие человека, которому изменила молодая супруга, ещё сильнее распаляется от намёков, что он утратил и свой талант, превратившись в праздного отшельника, постепенно теряющего связь с реальностью. А вдруг объявившийся Шутер (дословно фамилия означает «стрелок») — это своеобразный допинг, некая сверхдоза адреналина для анемичного и вечно сонного Морта Рэйни (его полное имя — Мортон, но все зовут сокращённо Мортом, что поневоле заставляет обратить внимание на перекличку с французским словом la mort, которое обозначает смерть).

Несмотря на то, что в фильме известного сценариста Дэвида Кеппа, порой подвизающегося на режиссёрском поприще, имеются несколько пугающих моментов, «Тайное окно» представляется излишне реалистическим по манере, вполне обычным триллером, который не доведён до весьма напряжённой атмосферы психопатологического действа на грани между нормальной жизнью и безумием. Глубины ущербного подсознания, которое однажды должно непременно выплеснуться наружу, так и остаются неизведанными, словно создателям картины вообще не захотелось заглянуть в тайное окно, ведущее в тайный сад, если уж воспользоваться полным названием новеллы Стивена Кинга. И Джонни Депп, честно говоря, не очень-то убедителен в роли писателя, пусть и выглядящего «деревенским хиппи».

2004

Name: ТАЙНОЕ ОКНО (Secret Window)
Artist: David Koepp
Genre: Drama
Release Date: 2004-03-12T08:00:00Z
Description: Фильм представляет собой экранизацию романа самого известного автора триллеров — Стивена Кинга. На этот раз картина повествует о талантливом и успешном писателе Морте Рейни, который переживает не самые лучшие времена в своей жизни.
Long Description: Фильм представляет собой экранизацию романа самого известного автора триллеров - Стивена Кинга. На этот раз картина повествует о талантливом и успешном писателе Морте Рейни, который переживает не самые лучшие времена в своей жизни. После того как он застал свою жену в постели с другим мужчиной и пережил утомительные формальности развода, Морт решает удалиться от дел, переехать за город и в тишине сельской жизни бороться с творческим кризисом, постигшим его.
И все было хорошо до тех пор, пока однажды ночью в его дом не ворвался незнакомец, обвинивший Морта в плагиате. Джон Шутер был слишком похож на психопата, а его пистолет - на настоящий, чтобы Морту пришла в голову идея с ним спорить. И когда писатель попытался убедить собеседника в своей правоте, показав ему рукописи книги, он столкнулся с небольшой проблемой - рукопись бесследно исчезла.
Rating: 16+
Studio: Columbia Pictures
Cast: Джонни Депп, Джон Туртурро, Мария Белло, Тимоти Хаттон, Чарльз С. Даттон, Лен Кариу, Джоан Хини, Джон Данн-Хилл, Власта Врана, Мэтт Холлэнд
Director: Дэвид Кепп
Producers: Гэвин Полон, Эзра Свердлоу
Screenwriters: Дэвид Кепп, Стивен Кинг
contentID: 532461736
XID: Apple:vendor_id:2004-4304
Sort Name: ТАЙНОЕ ОКНО (Secret Window)
Name: Secret Window
Artist: David Koepp
Genre: Drama
Release Date: 2004-03-12T08:00:00Z
Description: Фильм представляет собой экранизацию романа самого известного автора триллеров — Стивена Кинга. На этот раз картина повествует о талантливом и успешном писателе Морте Рейни, который переживает не самые лучшие времена в своей жизни.
Long Description: Фильм представляет собой экранизацию романа самого известного автора триллеров - Стивена Кинга. На этот раз картина повествует о талантливом и успешном писателе Морте Рейни, который переживает не самые лучшие времена в своей жизни. После того как он застал свою жену в постели с другим мужчиной и пережил утомительные формальности развода, Морт решает удалиться от дел, переехать за город и в тишине сельской жизни бороться с творческим кризисом, постигшим его.
И все было хорошо до тех пор, пока однажды ночью в его дом не ворвался незнакомец, обвинивший Морта в плагиате. Джон Шутер был слишком похож на психопата, а его пистолет - на настоящий, чтобы Морту пришла в голову идея с ним спорить. И когда писатель попытался убедить собеседника в своей правоте, показав ему рукописи книги, он столкнулся с небольшой проблемой - рукопись бесследно исчезла.
Rating: R
Rating Annotation: Rated PG-13 For violence/terror, sexual content and language.
Studio: Columbia Pictures
Cast: Джонни Депп, Джон Туртурро, Мария Белло, Тимоти Хаттон, Чарльз С. Даттон, Лен Кариу, Джоан Хини, Джон Данн-Хилл, Власта Врана, Мэтт Холлэнд
Director: Дэвид Кепп
Producers: Гэвин Полон, Эзра Свердлоу
Screenwriters: Дэвид Кепп, Стивен Кинг
Copyright: © 2004 Columbia Pictures Industries, Inc. All Rights Reserved.
contentID: 532461736
XID: Apple:vendor_id:2004-4304
Sort Name: Secret Window
General
Complete name                            : Secret Window (1080p HD).m4v
Format                                   : MPEG-4
Codec ID                                 : M4V  (M4V /M4A /mp42/isom)
File size                                : 7.82 GiB
Duration                                 : 1h 36mn
Overall bit rate mode                    : Variable
Overall bit rate                         : 11.6 Mbps
Movie name                               : Secret Window
Performer                                : David Koepp
Director                                 : Дэвид Кепп
Actor                                    : Джонни Депп / Джон Туртурро / Мария Белло / Тимоти Хаттон / Чарльз С. Даттон / Лен Кариу / Джоан Хини / Джон Данн-Хилл / Власта Врана / Мэтт Холлэнд
Screenplay by                            : Дэвид Кепп / Стивен Кинг
Producer                                 : Гэвин Полон / Эзра Свердлоу
Production studio                        : Columbia Pictures
Genre                                    : Drama
ContentType                              : Short Film
Description                              : Фильм представляет собой экранизацию романа самого известного автора триллеров — Стивена Кинга. На этот раз картина повествует о талантливом и успешном писателе Морте Рейни, который переживает не самые лучшие времена в своей жизни.
Recorded date                            : UTC 2004-03-12 08:00:00
Encoded date                             : UTC 2018-04-11 18:25:24
Tagged date                              : UTC 2018-04-11 19:16:50
Copyright                                : © 2004 Columbia Pictures Industries, Inc. All Rights Reserved.
Cover                                    : Yes
Rating                                   : None
Title/Sort                               : Secret Window
LongDescription                          : Фильм представляет собой экранизацию романа самого известного автора триллеров - Стивена Кинга. На этот раз картина повествует о талантливом и успешном писателе Морте Рейни, который переживает не самые лучшие времена в своей жизни. После того как он застал свою жену в постели с другим мужчиной и пережил утомительные формальности развода, Морт решает удалиться от дел, переехать за город и в тишине сельской жизни бороться с творческим кризисом, постигшим его.  / И все было хорошо до тех пор, пока однажды ночью в его дом не ворвался незнакомец, обвинивший Морта в плагиате. Джон Шутер был слишком похож на психопата, а его пистолет - на настоящий, чтобы Морту пришла в голову идея с ним спорить. И когда писатель попытался убедить собеседника в своей правоте, показав ему рукописи книги, он столкнулся с небольшой проблемой - рукопись бесследно исчезла.
AppleStoreCatalogID                      : 532461736
Vendor                                   : Apple:vendor_id:2004-4304
ContentRating                            : mpaa|R|400|Rated PG-13 For violence/terror, sexual content and language.

Video #1
ID                                       : 1
Format                                   : AVC
Format/Info                              : Advanced Video Codec
Format profile                           : [email protected]
Format settings                          : CABAC / 4 Ref Frames
Format settings, CABAC                   : Yes
Format settings, ReFrames                : 4 frames
Codec ID                                 : avc1
Codec ID/Info                            : Advanced Video Coding
Duration                                 : 1h 36mn
Bit rate mode                            : Variable
Bit rate                                 : 7 896 Kbps
Maximum bit rate                         : 15.0 Mbps
Width                                    : 1 920 pixels
Height                                   : 1 080 pixels
Display aspect ratio                     : 16:9
Frame rate mode                          : Variable
Frame rate                               : 23.976 (24000/1001) fps
Minimum frame rate                       : 23.810 fps
Maximum frame rate                       : 24.390 fps
Color space                              : YUV
Chroma subsampling                       : 4:2:0
Bit depth                                : 8 bits
Scan type                                : Progressive
Bits/(Pixel*Frame)                       : 0.159
Stream size                              : 5.30 GiB (68%)
Title                                    : Main Program
Language                                 : English
Encoded date                             : UTC 2018-04-11 18:25:24
Tagged date                              : UTC 2018-04-11 18:56:13
Color range                              : Limited
Color primaries                          : BT.709
Transfer characteristics                 : BT.709
Matrix coefficients                      : BT.709
Menus                                    : 17,18

Video #2
ID                                       : 18
Format                                   : JPEG
Codec ID                                 : jpeg
Duration                                 : 1h 36mn
Bit rate mode                            : Variable
Bit rate                                 : 1 681 bps
Width                                    : 640 pixels
Height                                   : 360 pixels
Display aspect ratio                     : 16:9
Frame rate mode                          : Variable
Frame rate                               : 0.005 fps
Minimum frame rate                       : 0.002 fps
Maximum frame rate                       : 0.009 fps
Color space                              : YUV
Chroma subsampling                       : 4:2:0
Bit depth                                : 8 bits
Compression mode                         : Lossy
Bits/(Pixel*Frame)                       : 1.459
Stream size                              : 1.12 MiB (0%)
Title                                    : Chapter Images
Language                                 : English
Default                                  : No
Encoded date                             : UTC 2018-04-11 19:16:28
Tagged date                              : UTC 2018-04-11 19:16:29
Menu For                                 : 1
ColorSpace_ICC                           : RGB

Audio #1
ID                                       : 2
Format                                   : AAC
Format/Info                              : Advanced Audio Codec
Format profile                           : LC
Codec ID                                 : mp4a-40-2
Duration                                 : 1h 36mn
Bit rate mode                            : Variable
Bit rate                                 : 165 Kbps
Maximum bit rate                         : 252 Kbps
Channel(s)                               : 2 channels
Channel positions                        : Front: L R
Sampling rate                            : 48.0 KHz
Frame rate                               : 46.875 fps (1024 SPF)
Compression mode                         : Lossy
Stream size                              : 113 MiB (1%)
Title                                    : Russian DUB R5 Stereo
Language                                 : Russian
Default                                  : Yes
Alternate group                          : 1
Encoded date                             : UTC 2018-04-11 18:25:24
Tagged date                              : UTC 2018-04-11 18:25:36
Fallback From                            : 9
Menus                                    : 17

Audio #2
ID                                       : 3
Format                                   : AAC
Format/Info                              : Advanced Audio Codec
Format profile                           : LC
Codec ID                                 : mp4a-40-2
Duration                                 : 1h 36mn
Bit rate mode                            : Variable
Bit rate                                 : 165 Kbps
Maximum bit rate                         : 255 Kbps
Channel(s)                               : 2 channels
Channel positions                        : Front: L R
Sampling rate                            : 48.0 KHz
Frame rate                               : 46.875 fps (1024 SPF)
Compression mode                         : Lossy
Stream size                              : 113 MiB (1%)
Title                                    : Russian DVO Tycoon Stereo
Language                                 : Russian
Default                                  : No
Alternate group                          : 1
Encoded date                             : UTC 2018-04-11 18:25:24
Tagged date                              : UTC 2018-04-11 18:25:36
Fallback From                            : 10

Audio #3
ID                                       : 4
Format                                   : AAC
Format/Info                              : Advanced Audio Codec
Format profile                           : LC
Codec ID                                 : mp4a-40-2
Duration                                 : 1h 36mn
Bit rate mode                            : Variable
Bit rate                                 : 163 Kbps
Maximum bit rate                         : 263 Kbps
Channel(s)                               : 2 channels
Channel positions                        : Front: L R
Sampling rate                            : 48.0 KHz
Frame rate                               : 46.875 fps (1024 SPF)
Compression mode                         : Lossy
Stream size                              : 112 MiB (1%)
Title                                    : Russian MVO Stereo
Language                                 : Russian
Default                                  : No
Alternate group                          : 1
Encoded date                             : UTC 2018-04-11 18:25:24
Tagged date                              : UTC 2018-04-11 18:25:36
Fallback From                            : 11

Audio #4
ID                                       : 5
Format                                   : AAC
Format/Info                              : Advanced Audio Codec
Format profile                           : LC
Codec ID                                 : mp4a-40-2
Duration                                 : 1h 36mn
Bit rate mode                            : Variable
Bit rate                                 : 164 Kbps
Maximum bit rate                         : 278 Kbps
Channel(s)                               : 2 channels
Channel positions                        : Front: L R
Sampling rate                            : 48.0 KHz
Frame rate                               : 46.875 fps (1024 SPF)
Compression mode                         : Lossy
Stream size                              : 113 MiB (1%)
Title                                    : Russian AVO E.Rudoy Stereo
Language                                 : Russian
Default                                  : No
Alternate group                          : 1
Encoded date                             : UTC 2018-04-11 18:25:24
Tagged date                              : UTC 2018-04-11 18:25:36
Fallback From                            : 12

Audio #5
ID                                       : 6
Format                                   : AAC
Format/Info                              : Advanced Audio Codec
Format profile                           : LC
Codec ID                                 : mp4a-40-2
Duration                                 : 1h 36mn
Bit rate mode                            : Variable
Bit rate                                 : 126 Kbps
Maximum bit rate                         : 175 Kbps
Channel(s)                               : 2 channels
Channel positions                        : Front: L R
Sampling rate                            : 48.0 KHz
Frame rate                               : 46.875 fps (1024 SPF)
Compression mode                         : Lossy
Stream size                              : 86.9 MiB (1%)
Title                                    : Ukrainian MVO Inter Stereo
Language                                 : Ukrainian
Default                                  : No
Alternate group                          : 1
Encoded date                             : UTC 2018-04-11 18:25:24
Tagged date                              : UTC 2018-04-11 18:25:36

Audio #6
ID                                       : 7
Format                                   : AAC
Format/Info                              : Advanced Audio Codec
Format profile                           : LC
Codec ID                                 : mp4a-40-2
Duration                                 : 1h 36mn
Bit rate mode                            : Variable
Bit rate                                 : 164 Kbps
Maximum bit rate                         : 260 Kbps
Channel(s)                               : 2 channels
Channel positions                        : Front: L R
Sampling rate                            : 48.0 KHz
Frame rate                               : 46.875 fps (1024 SPF)
Compression mode                         : Lossy
Stream size                              : 113 MiB (1%)
Title                                    : English Stereo
Language                                 : English
Default                                  : No
Alternate group                          : 1
Encoded date                             : UTC 2018-04-11 18:25:24
Tagged date                              : UTC 2018-04-11 18:25:36
Fallback From                            : 13

Audio #7
ID                                       : 8
Format                                   : AAC
Format/Info                              : Advanced Audio Codec
Format profile                           : LC
Codec ID                                 : mp4a-40-2
Duration                                 : 1h 36mn
Bit rate mode                            : Variable
Bit rate                                 : 149 Kbps
Maximum bit rate                         : 229 Kbps
Channel(s)                               : 2 channels
Channel positions                        : Front: L R
Sampling rate                            : 48.0 KHz
Frame rate                               : 46.875 fps (1024 SPF)
Compression mode                         : Lossy
Stream size                              : 102 MiB (1%)
Title                                    : English Commentary by director and screenwriter David Koepp Stereo
Language                                 : English
Default                                  : No
Alternate group                          : 1
Encoded date                             : UTC 2018-04-11 18:25:24
Tagged date                              : UTC 2018-04-11 18:25:36

Audio #8
ID                                       : 9
Format                                   : AC-3
Format/Info                              : Audio Coding 3
Codec ID                                 : ac-3
Duration                                 : 1h 36mn
Bit rate mode                            : Constant
Bit rate                                 : 448 Kbps
Channel(s)                               : 6 channels
Channel positions                        : Front: L C R, Side: L R, LFE
Sampling rate                            : 48.0 KHz
Frame rate                               : 31.250 fps (1536 SPF)
Bit depth                                : 16 bits
Compression mode                         : Lossy
Stream size                              : 308 MiB (4%)
Title                                    : Russian DUB R5 DD 5.1
Language                                 : Russian
Service kind                             : Complete Main
Default                                  : Inherited From: 2
Alternate group                          : 1
Encoded date                             : UTC 2018-04-11 18:25:24
Tagged date                              : UTC 2018-04-11 18:56:13
Fallback To                              : 2

Audio #9
ID                                       : 10
Format                                   : AC-3
Format/Info                              : Audio Coding 3
Codec ID                                 : ac-3
Duration                                 : 1h 36mn
Bit rate mode                            : Constant
Bit rate                                 : 448 Kbps
Channel(s)                               : 6 channels
Channel positions                        : Front: L C R, Side: L R, LFE
Sampling rate                            : 48.0 KHz
Frame rate                               : 31.250 fps (1536 SPF)
Bit depth                                : 16 bits
Compression mode                         : Lossy
Stream size                              : 308 MiB (4%)
Title                                    : Russian DVO Tycoon DD 5.1
Language                                 : Russian
Service kind                             : Complete Main
Default                                  : No
Alternate group                          : 1
Encoded date                             : UTC 2018-04-11 18:25:24
Tagged date                              : UTC 2018-04-11 18:56:13
Fallback To                              : 3

Audio #10
ID                                       : 11
Format                                   : AC-3
Format/Info                              : Audio Coding 3
Codec ID                                 : ac-3
Duration                                 : 1h 36mn
Bit rate mode                            : Constant
Bit rate                                 : 448 Kbps
Channel(s)                               : 6 channels
Channel positions                        : Front: L C R, Side: L R, LFE
Sampling rate                            : 48.0 KHz
Frame rate                               : 31.250 fps (1536 SPF)
Bit depth                                : 16 bits
Compression mode                         : Lossy
Stream size                              : 308 MiB (4%)
Title                                    : Russian MVO DD 5.1
Language                                 : Russian
Service kind                             : Complete Main
Default                                  : No
Alternate group                          : 1
Encoded date                             : UTC 2018-04-11 18:25:24
Tagged date                              : UTC 2018-04-11 18:56:13
Fallback To                              : 4

Audio #11
ID                                       : 12
Format                                   : AC-3
Format/Info                              : Audio Coding 3
Codec ID                                 : ac-3
Duration                                 : 1h 36mn
Bit rate mode                            : Constant
Bit rate                                 : 640 Kbps
Channel(s)                               : 6 channels
Channel positions                        : Front: L C R, Side: L R, LFE
Sampling rate                            : 48.0 KHz
Frame rate                               : 31.250 fps (1536 SPF)
Bit depth                                : 16 bits
Compression mode                         : Lossy
Stream size                              : 440 MiB (5%)
Title                                    : Russian AVO E.Rudoy DD 5.1
Language                                 : Russian
Service kind                             : Complete Main
Default                                  : No
Alternate group                          : 1
Encoded date                             : UTC 2018-04-11 18:25:24
Tagged date                              : UTC 2018-04-11 18:56:13
Fallback To                              : 5

Audio #12
ID                                       : 13
Format                                   : AC-3
Format/Info                              : Audio Coding 3
Codec ID                                 : ac-3
Duration                                 : 1h 36mn
Bit rate mode                            : Constant
Bit rate                                 : 640 Kbps
Channel(s)                               : 6 channels
Channel positions                        : Front: L C R, Side: L R, LFE
Sampling rate                            : 48.0 KHz
Frame rate                               : 31.250 fps (1536 SPF)
Bit depth                                : 16 bits
Compression mode                         : Lossy
Stream size                              : 440 MiB (5%)
Title                                    : English DD 5.1
Language                                 : English
Service kind                             : Complete Main
Default                                  : No
Alternate group                          : 1
Encoded date                             : UTC 2018-04-11 18:25:24
Tagged date                              : UTC 2018-04-11 18:25:33
Fallback To                              : 7

Text #1
ID                                       : 14
Format                                   : Timed Text
Muxing mode                              : sbtl
Codec ID                                 : tx3g
Duration                                 : 1h 32mn
Bit rate mode                            : Variable
Bit rate                                 : 88 bps
Stream size                              : 59.7 KiB (0%)
Title                                    : Russian ver. 1 Subtitle
Language                                 : Russian
Default                                  : Yes
Forced                                   : No
Alternate group                          : 2
Encoded date                             : UTC 2018-04-11 18:25:24
Tagged date                              : UTC 2018-04-11 18:25:24

Text #2
ID                                       : 15
Format                                   : Timed Text
Muxing mode                              : sbtl
Codec ID                                 : tx3g
Duration                                 : 1h 35mn
Bit rate mode                            : Variable
Bit rate                                 : 76 bps
Stream size                              : 53.6 KiB (0%)
Title                                    : Russian ver. 2 Subtitle
Language                                 : Russian
Default                                  : No
Forced                                   : No
Alternate group                          : 2
Encoded date                             : UTC 2018-04-11 18:25:24
Tagged date                              : UTC 2018-04-11 18:25:24

Text #3
ID                                       : 16
Format                                   : Timed Text
Muxing mode                              : sbtl
Codec ID                                 : tx3g
Duration                                 : 1h 32mn
Bit rate mode                            : Variable
Bit rate                                 : 56 bps
Stream size                              : 37.6 KiB (0%)
Title                                    : English Subtitle
Language                                 : English
Default                                  : No
Forced                                   : No
Alternate group                          : 2
Encoded date                             : UTC 2018-04-11 18:25:24
Tagged date                              : UTC 2018-04-11 18:25:24

Menu #1
00:00:00.000                             : Start
00:04:31.334                             : My Story
00:07:43.001                             : Problem Solved
00:10:04.168                             : The Secret Garden
00:13:04.535                             : A Good Man
00:15:29.702                             : Nice House
00:18:38.670                             : "3 Days"
00:21:32.538                             : Couch Potato
00:23:51.372                             : Revenge
00:25:49.340                             : Crazy Wacko
00:28:47.174                             : City Folks
00:31:04.841                             : Hit the Road, Jack
00:34:27.841                             : Home Alone
00:37:47.341                             : The Ending
00:41:46.541                             : Enemies?
00:45:11.008                             : Rubbernecker
00:47:47.342                             : The New Guy
00:50:11.709                             : $500 a Day
00:54:29.742                             : Dna
00:58:02.042                             : Ted
01:01:21.342                             : Bloodshed
01:05:36.043                             : Out for a Jog
01:07:58.043                             : Need Some Rest
01:12:57.011                             : The Magazine
01:15:10.345                             : Dazed and Confused
01:20:39.679                             : Page 83
01:22:30.012                             : Shooter
01:28:20.079                             : The Perfect Ending

Menu #2
ID                                       : 17
Codec ID                                 : text
Duration                                 : 1h 36mn
Title                                    : Chapter Titles
Language                                 : English
Encoded date                             : UTC 2018-04-11 19:16:14
Tagged date                              : UTC 2018-04-11 19:16:14
Menu For                                 : 2,1
00:00:00.000                             : Start
00:04:31.334                             : My Story
00:07:43.001                             : Problem Solved
00:10:04.168                             : The Secret Garden
00:13:04.535                             : A Good Man
00:15:29.702                             : Nice House
00:18:38.670                             : "3 Days"
00:21:32.538                             : Couch Potato
00:23:51.372                             : Revenge
00:25:49.340                             : Crazy Wacko
00:28:47.174                             : City Folks
00:31:04.841                             : Hit the Road, Jack
00:34:27.841                             : Home Alone
00:37:47.341                             : The Ending
00:41:46.541                             : Enemies?
00:45:11.008                             : Rubbernecker
00:47:47.342                             : The New Guy
00:50:11.709                             : $500 a Day
00:54:29.742                             : Dna
00:58:02.042                             : Ted
01:01:21.342                             : Bloodshed
01:05:36.043                             : Out for a Jog
01:07:58.043                             : Need Some Rest
01:12:57.011                             : The Magazine
01:15:10.345                             : Dazed and Confused
01:20:39.679                             : Page 83
01:22:30.012                             : Shooter
01:28:20.079                             : The Perfect Ending
Bit rate mode                            : VBR

[*] Скорее всего WEB-DL с Amazon, так как дорога в исходнике E-AC3;
[*] Иногда появляется логотип Starz;
Релиз подготовлен для просмотра на Apple TV, iPad, iPhone, iPod Touch.
Для просмотра данного релиза на компьютере с ОС Windows рекомендуется использовать VLC media player

Трекер:  [ 11-Апр-2018 23:06 ]

  

Скачать .torrent

Размер .torrent файла 78 KB


Размер: 7.82 GB
Хэш (hash) релиза: 13e1c48d956a1195b5adafb72712bf2fb39cce57

Еще никто не оставлял запись к записи скачать торрент [ATV3] Тайное окно Secret Window . Будь первым!

!Обратная связь