Ghosts and UFO's (by SedonaLeigh) | Mudança de Hábito 2 - Mais Loucuras no Convento Clássico / Comédia / Musical / Policial Idioma: Inglês / Português 1993 MKV Torrent DownloadVídeo 10 / Áudio 10CompletoSinopse: Deloris Van Cartier (Whoopi Goldberg) agora é uma cantora famosa e retorna a São Francisco para ajudar suas amigas freiras. Sua missão é dar...

| Super Fly

Скачать через торрент Вайолет Эвергарден Violet Evergarden Фильм бесплатно в хорошем качестве torrent

Скачивайте на UnionPeer.org фильмы через торрент без регистрации. Новинки кино в хорошем качестве через торрент. На UnionPeer.org можно скачать через торрент фильмы 2014 и 2015 годов. Самые новые фильмы.

Скачать торрент Вайолет Эвергарден Violet Evergarden бесплатно через .torrent фильм мультфильм сериал

Статистика раздачи
Размер:  1.4 GB   |    Зарегистрирован:  3 месяца 9 дней   |    .torrent скачан:  16 раз   |   
Раздают:  1  
   
загрузка...
 
Автор Сообщение

Galfimbul

avatar Galfimbul


Вайолет Эвергарден
Оригинальное название: Violet Evergarden
Период трансляции: c 11.01.2018 по 05.04.2018
Страна: Япония
Жанр: повседневность, драма
Продолжительность: 13 эп., ~24 мин.
Режиссер: Исидатэ Тайти
Студия:
Перевод: Субтитры от [YakuSub Studio]
Переводчик: SeshaRim, Yukigawa;
Редактор: KeeperRus, Nika_Elrik;
Оформление: Helge;
Описание: Вайолет Эвергарден - девушка волей судьбы в самом раннем детстве попавшая в армию. Ее называют "оружием" или "инструментом", отправляя в самое пекло битвы. Она убивает легко и не задумываясь. Казалось бы, ей неведомы эмоции. Последний ее командир, майор Гилберт, будучи тяжело ранен, сказал Вайолет слова, которых раньше никогда не говорил. Вайолет не знает значения этих слов. Но очень хочет узнать.

После окончания войны, устроившись на работу в местное отделение почты, она решает стать "Самопишущей Куклой" - тем, кто помогает людям донести свои чувства до близких с помощью писем. Она надеется, что это поможет понять, что означают слова "я люблю тебя".
01. "I love you" and Automatic Doll
02. Not Coming Back
03. May You Be an Exemplary Auto Memoir Doll
04. Don`t Be a Tool, Become Someone That Matches with Their Name
05. You Write Letters That Bring People Together?
06. Under Some Starry Sky
07. " "
08. Episode 8
09. Violet Evergarden
10. A Loved One Will Always Watch Over You
11. I Don`t Want Anybody Else to Die
12. Episode 12
13.The Auto Memory Doll and "I Love You"

Качество видео: HDTVRip
Формат: MP4
Видео кодек: H.264
Аудио кодек: AAC
Видео: MPEG4 Video (H264) 480x272 23.976fps 511kbps
Аудио: AAC 48000Hz stereo 129kbps
Format : MPEG-4
Format profile : Base Media
Codec ID : isom (isom/avc1)
File size : 111 MiB
Duration : 23 min
Overall bit rate mode : Variable
Overall bit rate : 644 kb/s
Encoded date : UTC 2018-03-29 09:05:40
Tagged date : UTC 2018-03-29 09:05:40

Video
ID : 1
Format : AVC
Format/Info : Advanced Video Codec
Format profile : [email protected]
Format settings, CABAC : Yes
Format settings, ReFrames : 2 frames
Codec ID : avc1
Codec ID/Info : Advanced Video Coding
Duration : 23 min
Bit rate : 512 kb/s
Maximum bit rate : 2 293 kb/s
Width : 480 pixels
Height : 272 pixels
Display aspect ratio : 16:9
Frame rate mode : Constant
Frame rate : 23.976 (24000/1001) FPS
Color space : YUV
Chroma subsampling : 4:2:0
Bit depth : 8 bits
Scan type : Progressive
Bits/(Pixel*Frame) : 0.164
Stream size : 87.8 MiB (79%)
Writing library : x264 core 65 r999kMod cc51047
Encoding settings : cabac=1 / ref=2 / deblock=1:-2:-1 / analyse=0x1:0x131 / me=umh / subme=7 / psy_rd=1.0:0.0 / mixed_ref=1 / me_range=16 / chroma_me=1 / trellis=2 / 8x8dct=0 / cqm=0 / deadzone=21,11 / chroma_qp_offset=-2 / threads=2 / thread_queue=2 / nr=0 / decimate=0 / mbaff=0 / bframes=3 / b_pyramid=0 / b_adapt=1 / b_bias=0 / direct=3 / wpredb=1 / keyint=250 / keyint_min=25 / scenecut=40(pre) / rc=2pass / bitrate=512 / ratetol=1.0 / qcomp=0.60 / qpmin=10 / qpmax=51 / qpstep=4 / cplxblur=20.0 / qblur=0.5 / ip_ratio=1.40 / pb_ratio=1.30 / aq=1:1.00
Encoded date : UTC 2018-03-29 09:05:40
Tagged date : UTC 2018-03-29 09:05:44

Audio
ID : 2
Format : AAC
Format/Info : Advanced Audio Codec
Format profile : LC
Codec ID : 40
Duration : 23 min
Bit rate mode : Variable
Bit rate : 129 kb/s
Maximum bit rate : 213 kb/s
Channel(s) : 2 channels
Channel positions : Front: L R
Sampling rate : 48.0 kHz
Frame rate : 46.875 FPS (1024 spf)
Compression mode : Lossy
Stream size : 22.1 MiB (20%)
Encoded date : UTC 2018-03-29 09:05:43
Tagged date : UTC 2018-03-29 09:05:44


Трекер:  [ 11-Апр-2018 19:36 ]

  

Скачать .torrent

Размер .torrent файла 16 KB


Размер: 1.4 GB
Хэш (hash) релиза: 4df4214fb89b6e6ea724aef0c9e36680c9ecb90c
Подписка на обновления:

Еще никто не оставлял запись к записи скачать торрент Вайолет Эвергарден Violet Evergarden . Будь первым!

!Обратная связь