Howard Ferguson Jr. | Game of Thrones - Season 6 - 1080p HDTV - x265 HEVC - 6CH - ShAaNiG | Grégory Fitoussi

Скачать через торрент музыку Величайший шоумен The Greatest Showman - 2017, FLAC бесплатно без регистрации torrent

Статистика раздачи
Размер:  254 MB   |    Зарегистрирован:  3 месяца 7 дней   |    .torrent скачан:  22 раза   |   
Раздают:  1  
   
загрузка...
 
Автор Сообщение

Galfimbul

avatar Galfimbul


Величайший шоумен / The Greatest Showman

Жанр: Soundtrack
Год выпуска диска: 2017
Год выпуска фильма: 2017
Страна-производитель диска: US
Издатель (лейбл): Atlantic
Номер по каталогу: 564880-1
Аудиокодек: FLAC (*.flac)
Тип рипа: tracks+.cue
Битрейт аудио: lossless
Продолжительность: 00:39:57
Источник: релизер
сайт-источник/ник/другое: sharky77
Наличие сканов в содержимом раздачи: да
Треклист:
01. The Greatest Show (05:02)
02. A Million Dreams (04:29)
03. A Million Dreams (Reprise) (01:00)
04. Come Alive (03:45)
05. The Other Side (03:34)
06. Loren Allred – Never Enough (03:27)
07. This Is Me (03:54)
08. Rewrite the Stars (03:37)
09. Michelle Williams – Tightrope (03:54)
10. Loren Allred – Never Enough (Reprise) (01:20)
11. From Now On (05:49)
Exact Audio Copy V1.3 from 2. September 2016

EAC extraction logfile from 8. February 2018, 23:41

Various Artists / The Greatest Showman - Original Motion Picture Soundtrack

Used drive : ATAPI DVD A DH16AAL Adapter: 1 ID: 0

Read mode : SecureUtilize accurate stream : YesDefeat audio cache : YesMake use of C2 pointers : No

Read offset correction : 6Overread into Lead-In and Lead-Out : NoFill up missing offset samples with silence : YesDelete leading and trailing silent blocks : NoNull samples used in CRC calculations : YesUsed interface : Native Win32 interface for Win NT & 2000Gap handling : Appended to previous track

Used output format : User Defined EncoderSelected bitrate : 1024 kBit/sQuality : HighAdd ID3 tag : NoCommand line compressor : C:\Program Files (x86)\Exact Audio Copy\Flac\flac.exeAdditional command line options : -8 -e -p -V -T "ARTIST=%artist%" -T "TITLE=%title%" -T "ALBUM=%albumtitle%" -T "DATE=%year%" -T "TRACKNUMBER=%tracknr%" -T "GENRE=%genre%" -T "PERFORMER=%albuminterpret%" -T "COMPOSER=%composer%" %haslyrics%--tag-from-file=LYRICS="%lyricsfile%"%haslyrics% -T "ALBUMARTIST=%albumartist%" -T "DISCNUMBER=%cdnumber%" -T "TOTALDISCS=%totalcds%" -T "TOTALTRACKS=%numtracks%" -T "COMMENT=%comment%" %source% -o %dest%

TOC of the extracted CD

Track | Start | Length | Start sector | End sector --------------------------------------------------------- 1 | 0:00.00 | 5:02.11 | 0 | 22660 2 | 5:02.11 | 4:29.34 | 22661 | 42869 3 | 9:31.45 | 1:00.34 | 42870 | 47403 4 | 10:32.04 | 3:45.70 | 47404 | 64348 5 | 14:17.74 | 3:34.28 | 64349 | 80426 6 | 17:52.27 | 3:27.59 | 80427 | 96010 7 | 21:20.11 | 3:54.53 | 96011 | 113613 8 | 25:14.64 | 3:37.33 | 113614 | 129921 9 | 28:52.22 | 3:54.27 | 129922 | 147498 10 | 32:46.49 | 1:20.22 | 147499 | 153520 11 | 34:06.71 | 5:49.42 | 153521 | 179737

Track 1

Filename C:\Zelou\EAC Rips\Various Artists - The Greatest Showman (2017) [FLAC] {2-564880}\01 - Hugh Jackman, Keala Settle, Zac Efron, Zendaya & The Greatest Showman Ensemble - The Greatest Show.wav

Pre-gap length 0:00:02.00

Peak level 96.5 % Extraction speed 3.4 X Track quality 100.0 % Test CRC EAD88059 Copy CRC EAD88059 Accurately ripped (confidence 1) [2958656C] (AR v2) Copy OK

Track 2

Filename C:\Zelou\EAC Rips\Various Artists - The Greatest Showman (2017) [FLAC] {2-564880}\02 - Ziv Zaifman, Hugh Jackman, Michelle Williams - A Million Dreams.wav

Peak level 96.5 % Extraction speed 3.9 X Track quality 100.0 % Test CRC 1339F308 Copy CRC 1339F308 Accurately ripped (confidence 1) [4CBBCD4B] (AR v2) Copy OK

Track 3

Filename C:\Zelou\EAC Rips\Various Artists - The Greatest Showman (2017) [FLAC] {2-564880}\03 - Austyn Johnson, Cameron Seely, Hugh Jackman - A Million Dreams (Reprise).wav

Peak level 88.2 % Extraction speed 2.8 X Track quality 100.0 % Test CRC 676D33C8 Copy CRC 676D33C8 Accurately ripped (confidence 1) [E5EF60E5] (AR v2) Copy OK

Track 4

Filename C:\Zelou\EAC Rips\Various Artists - The Greatest Showman (2017) [FLAC] {2-564880}\04 - Hugh Jackman, Keala Settle, Daniel Everidge, Zendaya & The Greatest Showman Ensemble - Come Alive.wav

Peak level 96.5 % Extraction speed 4.2 X Track quality 100.0 % Test CRC DD2836DD Copy CRC DD2836DD Accurately ripped (confidence 1) [2C308810] (AR v2) Copy OK

Track 5

Filename C:\Zelou\EAC Rips\Various Artists - The Greatest Showman (2017) [FLAC] {2-564880}\05 - Hugh Jackman & Zac Efron - The Other Side.wav

Peak level 96.5 % Extraction speed 4.4 X Track quality 100.0 % Test CRC A8BE79B8 Copy CRC A8BE79B8 Accurately ripped (confidence 1) [515F15A2] (AR v2) Copy OK

Track 6

Filename C:\Zelou\EAC Rips\Various Artists - The Greatest Showman (2017) [FLAC] {2-564880}\06 - Loren Allred - Never Enough.wav

Peak level 96.5 % Extraction speed 3.6 X Track quality 99.9 % Test CRC 04A0D404 Copy CRC 04A0D404 Accurately ripped (confidence 1) [639EF51F] (AR v2) Copy OK

Track 7

Filename C:\Zelou\EAC Rips\Various Artists - The Greatest Showman (2017) [FLAC] {2-564880}\07 - Keala Settle & The Greatest Showman Ensemble - This Is Me.wav

Peak level 96.5 % Extraction speed 3.9 X Track quality 99.9 % Test CRC 3DEF5EE1 Copy CRC 3DEF5EE1 Accurately ripped (confidence 1) [310CC1D5] (AR v2) Copy OK

Track 8

Filename C:\Zelou\EAC Rips\Various Artists - The Greatest Showman (2017) [FLAC] {2-564880}\08 - Zac Efron & Zendaya - Rewrite The Stars.wav

Peak level 96.5 % Extraction speed 4.0 X Track quality 99.9 % Test CRC 68CC0F1A Copy CRC 68CC0F1A Accurately ripped (confidence 1) [DC66CF89] (AR v2) Copy OK

Track 9

Filename C:\Zelou\EAC Rips\Various Artists - The Greatest Showman (2017) [FLAC] {2-564880}\09 - Michelle Williams - Tightrope.wav

Peak level 96.5 % Extraction speed 4.3 X Track quality 99.9 % Test CRC 2E06C14F Copy CRC 2E06C14F Accurately ripped (confidence 1) [98BEF143] (AR v2) Copy OK

Track 10

Filename C:\Zelou\EAC Rips\Various Artists - The Greatest Showman (2017) [FLAC] {2-564880}\10 - Loren Allred - Never Enough (Reprise).wav

Peak level 89.2 % Extraction speed 2.7 X Track quality 99.8 % Test CRC 096EA40A Copy CRC 096EA40A Accurately ripped (confidence 1) [0C254A3D] (AR v2) Copy OK

Track 11

Filename C:\Zelou\EAC Rips\Various Artists - The Greatest Showman (2017) [FLAC] {2-564880}\11 - Hugh Jackman & The Greatest Showman Ensemble - From Now On.wav

Peak level 96.5 % Extraction speed 6.0 X Track quality 100.0 % Test CRC 1CF44EB2 Copy CRC 1CF44EB2 Cannot be verified as accurate (confidence 1) [952C060B], AccurateRip returned [D3469F0F] (AR v2) Copy OK

10 track(s) accurately ripped 1 track(s) could not be verified as accurate

Some tracks could not be verified as accurate

No errors occurred

End of status report

---- CUETools DB Plugin V2.1.6

[CTDB TOCID: gKBt6N_yOoYWY3vgMFfXnZda2yw-] foundSubmit result: gKBt6N_yOoYWY3vgMFfXnZda2yw- has been confirmedTrack | CTDB Status 1 | (193/193) Accurately ripped 2 | (192/193) Accurately ripped 3 | (193/193) Accurately ripped 4 | (192/193) Accurately ripped 5 | (193/193) Accurately ripped 6 | (193/193) Accurately ripped 7 | (193/193) Accurately ripped 8 | (192/193) Accurately ripped 9 | (193/193) Accurately ripped 10 | (193/193) Accurately ripped 11 | (188/193) Accurately ripped

==== Log checksum 11B32F72C92991F1D98F9BA3C3952F23429FBD68DB26B997F615F39A71D302A2 ====
REM GENRE SoundtrackREM DATE 2017REM DISCID 96095C0BREM COMMENT "ExactAudioCopy v1.3"CATALOG 0075678659270PERFORMER "Various Artists"TITLE "The Greatest Showman - Original Motion Picture Soundtrack"REM COMPOSER ""FILE "01 - Hugh Jackman, Keala Settle, Zac Efron, Zendaya & The Greatest Showman Ensemble - The Greatest Show.wav" WAVE TRACK 01 AUDIO TITLE "The Greatest Show" PERFORMER "Hugh Jackman, Keala Settle, Zac Efron, Zendaya & The Greatest Showman Ensemble" REM COMPOSER "" ISRC USAT21704616 FLAGS DCP INDEX 01 00:00:00FILE "02 - Ziv Zaifman, Hugh Jackman, Michelle Williams - A Million Dreams.wav" WAVE TRACK 02 AUDIO TITLE "A Million Dreams" PERFORMER "Ziv Zaifman, Hugh Jackman, Michelle Williams" REM COMPOSER "" ISRC USAT21704616 FLAGS DCP INDEX 01 00:00:00FILE "03 - Austyn Johnson, Cameron Seely, Hugh Jackman - A Million Dreams (Reprise).wav" WAVE TRACK 03 AUDIO TITLE "A Million Dreams (Reprise)" PERFORMER "Austyn Johnson, Cameron Seely, Hugh Jackman" REM COMPOSER "" ISRC USAT21704617 FLAGS DCP INDEX 01 00:00:00FILE "04 - Hugh Jackman, Keala Settle, Daniel Everidge, Zendaya & The Greatest Showman Ensemble - Come Alive.wav" WAVE TRACK 04 AUDIO TITLE "Come Alive" PERFORMER "Hugh Jackman, Keala Settle, Daniel Everidge, Zendaya & The Greatest Showman E..." REM COMPOSER "" ISRC USAT21704619 FLAGS DCP INDEX 01 00:00:00FILE "05 - Hugh Jackman & Zac Efron - The Other Side.wav" WAVE TRACK 05 AUDIO TITLE "The Other Side" PERFORMER "Hugh Jackman & Zac Efron" REM COMPOSER "" ISRC USAT21704620 FLAGS DCP INDEX 01 00:00:00FILE "06 - Loren Allred - Never Enough.wav" WAVE TRACK 06 AUDIO TITLE "Never Enough" PERFORMER "Loren Allred" REM COMPOSER "" ISRC USAT21704620 FLAGS DCP INDEX 01 00:00:00FILE "07 - Keala Settle & The Greatest Showman Ensemble - This Is Me.wav" WAVE TRACK 07 AUDIO TITLE "This Is Me" PERFORMER "Keala Settle & The Greatest Showman Ensemble" REM COMPOSER "" ISRC USAT21704621 FLAGS DCP INDEX 01 00:00:00FILE "08 - Zac Efron & Zendaya - Rewrite The Stars.wav" WAVE TRACK 08 AUDIO TITLE "Rewrite The Stars" PERFORMER "Zac Efron & Zendaya" REM COMPOSER "" ISRC USAT21704622 FLAGS DCP INDEX 01 00:00:00FILE "09 - Michelle Williams - Tightrope.wav" WAVE TRACK 09 AUDIO TITLE "Tightrope" PERFORMER "Michelle Williams" REM COMPOSER "" ISRC USAT21704623 FLAGS DCP INDEX 01 00:00:00FILE "10 - Loren Allred - Never Enough (Reprise).wav" WAVE TRACK 10 AUDIO TITLE "Never Enough (Reprise)" PERFORMER "Loren Allred" REM COMPOSER "" ISRC USAT21704625 FLAGS DCP INDEX 01 00:00:00FILE "11 - Hugh Jackman & The Greatest Showman Ensemble - From Now On.wav" WAVE TRACK 11 AUDIO TITLE "From Now On" PERFORMER "Hugh Jackman & The Greatest Showman Ensemble" REM COMPOSER "" ISRC USAT21704625 FLAGS DCP INDEX 01 00:00:00
-----------------------

DON'T MODIFY THIS FILE

-----------------------

PERFORMER: auCDtect Task Manager, ver. 1.6.0 RC1 build 1.6.0.1Copyright (c) 2008-2010 y-soft. All rights reservedhttp://y-soft.org

ANALYZER: auCDtect: CD records authenticity detector, version 0.8.2Copyright (c) 2004 Oleg Berngardt. All rights reserved.Copyright (c) 2004 Alexander Djourik. All rights reserved.

FILE: 11 - Hugh Jackman & The Greatest Showman Ensemble - From Now On.flac Size: 33706133 Hash: 83A67AB5D2878B06B7FA036E4C11C1E0 Accuracy: -m0 Conclusion: CDDA 100% Signature: ED6DF959A27367FB80EB0E25863C882EFE2C88BBFILE: 10 - Loren Allred - Never Enough (Reprise).flac Size: 6051959 Hash: E169F5768EDDE02FAF63764F56A6108A Accuracy: -m0 Conclusion: CDDA 100% Signature: EB858D4C8156225F46F731274FADB37FE04CB9B9FILE: 09 - Michelle Williams - Tightrope.flac Size: 24197351 Hash: D3350B6D3A773B70D35BE09FA116F436 Accuracy: -m0 Conclusion: CDDA 100% Signature: E72FE6D9EBA2F1104DEF61522EB3B6ABC03745B9FILE: 08 - Zac Efron & Zendaya - Rewrite The Stars.flac Size: 25213665 Hash: 48A3090BB1F6EFAFEC675B61AF1DD793 Accuracy: -m0 Conclusion: CDDA 100% Signature: 8EDE3662C69B8395B5C75832CC3A02EC8A4AAB69FILE: 07 - Keala Settle & The Greatest Showman Ensemble - This Is Me.flac Size: 27009303 Hash: 014E3C778B6DDF9B2AC088B529A5CA89 Accuracy: -m0 Conclusion: CDDA 100% Signature: 6E52A05C5EE41D13D583BDD8C37E930E7EB3F089FILE: 06 - Loren Allred - Never Enough.flac Size: 20017643 Hash: 04FAE2D62FA33CE1A28CD8768720B0FF Accuracy: -m0 Conclusion: CDDA 100% Signature: 5AFC311C4D70BBE7E58A5967A8F2D26A04234D83FILE: 05 - Hugh Jackman & Zac Efron - The Other Side.flac Size: 24491852 Hash: 2311C2ED611C4B143D35BB67092F4FA4 Accuracy: -m0 Conclusion: CDDA 99% Signature: 23AF5A41EBF91C92D93DB2CDFE8F7EDBB8AC4FE6FILE: 04 - Hugh Jackman, Keala Settle, Daniel Everidge, Zendaya & The Greatest Showman Ensemble - Come Alive.flac Size: 27057127 Hash: 58A9E080CFF034195AA93255162853C4 Accuracy: -m0 Conclusion: CDDA 100% Signature: 94991542B8F50451642E3A4059C159EC93B89E42FILE: 03 - Austyn Johnson, Cameron Seely, Hugh Jackman - A Million Dreams (Reprise).flac Size: 4944153 Hash: 6A9C63C5DF38D115FAC8C7CE29F793B1 Accuracy: -m0 Conclusion: CDDA 100% Signature: 43F63106EA0A43D52F605F2A0A3FD693B2941820FILE: 02 - Ziv Zaifman, Hugh Jackman, Michelle Williams - A Million Dreams.flac Size: 26163494 Hash: 1C9CFACF5727962D7417C5D3CEFC330B Accuracy: -m0 Conclusion: CDDA 100% Signature: A934C7A463BD23D023A24FE6CCD397F0F5717C93FILE: 01 - Hugh Jackman, Keala Settle, Zac Efron, Zendaya & The Greatest Showman Ensemble - The Greatest Show.flac Size: 38279301 Hash: 04A724DE5C6BFE7B74CDD97EDBF3A7CC Accuracy: -m0 Conclusion: CDDA 100% Signature: 01FBB7DC393CDA3900F48C548A9701866D0764CE
foobar2000 1.3.16 / Замер динамического диапазона (DR) 1.1.1
Дата отчёта: 2018-04-11 15:01:19

--------------------------------------------------------------------------------
Анализ: Austyn Johnson, Cameron Seely, Hugh Jackman / The Greatest Showman - Original Motion Picture Soundtrack (1)
Hugh Jackman & The Greatest Showman Ensemble / The Greatest Showman - Original Motion Picture Soundtrack (2)
Hugh Jackman & Zac Efron / The Greatest Showman - Original Motion Picture Soundtrack (3)
Hugh Jackman, Keala Settle, Daniel Everidge, Zendaya & The Greatest Showman Ensemble / The Greatest Showman - Original Motion Picture Soundtrack (4)
Hugh Jackman, Keala Settle, Zac Efron, Zendaya & The Greatest Showman Ensemble / The Greatest Showman - Original Motion Picture Soundtrack (5)
Keala Settle & The Greatest Showman Ensemble / The Greatest Showman - Original Motion Picture Soundtrack (6)
Loren Allred / The Greatest Showman - Original Motion Picture Soundtrack (7-8)
Michelle Williams / The Greatest Showman - Original Motion Picture Soundtrack (9)
Zac Efron & Zendaya / The Greatest Showman - Original Motion Picture Soundtrack (10)
Ziv Zaifman, Hugh Jackman, Michelle Williams / The Greatest Showman - Original Motion Picture Soundtrack (11)
--------------------------------------------------------------------------------

DR Пики RMS Продолжительность трека
--------------------------------------------------------------------------------
DR10 -1.09 дБ -18.78 дБ 1:00 03-A Million Dreams (Reprise)
DR7 -0.30 дБ -11.97 дБ 5:50 11-From Now On
DR7 -0.30 дБ -10.33 дБ 3:34 05-The Other Side
DR7 -0.30 дБ -10.92 дБ 3:46 04-Come Alive
DR6 -0.30 дБ -8.29 дБ 5:02 01-The Greatest Show
DR6 -0.30 дБ -10.02 дБ 3:55 07-This Is Me
DR7 -0.30 дБ -11.67 дБ 3:28 06-Never Enough
DR12 -0.99 дБ -20.39 дБ 1:20 10-Never Enough (Reprise)
DR7 -0.30 дБ -11.74 дБ 3:54 09-Tightrope
DR6 -0.30 дБ -8.86 дБ 3:37 08-Rewrite The Stars
DR8 -0.30 дБ -13.49 дБ 4:29 02-A Million Dreams
--------------------------------------------------------------------------------

Количество треков: 11
Реальные значения DR: DR8

Частота: 44100 Гц
Каналов: 2
Разрядность: 16
Битрейт: 773 кбит/с
Кодек: FLAC
================================================================================


Трекер:  [ 11-Апр-2018 17:06 ]

  

Скачать .torrent

Размер .torrent файла 42 KB


Размер: 254 MB
Хэш (hash) релиза: 9ad5786466afd4e75c0ba91cfa84e5c6052cd19b

Торренты, похожие на Величайший шоумен The Greatest Showman - 2017, FLAC скачать торрент

Форум Название Автор Размер S L Добавлен
Саундтреки к фильмам и мультфильмам (lossless) ·· (Soundtrack) Величайший шоумен / The Greatest Showman - 2017, FLAC (tracks), lossless Galfimbul 260314268248 MB 0 0 1518864123

13:42

17-Фев-18

Еще никто не оставлял запись к записи скачать торрент Величайший шоумен The Greatest Showman - 2017, FLAC . Будь первым!

!Обратная связь