Spartacus: Blood and Sand | Dj Galau Kau Tercipta Bukan Untukku Breakbeat Mix 2017 | Gorrión rojo (2018)

Скачать через торрент ОТ-пятые Мошенники Dirty Rotten Scoundrels Фильм бесплатно в хорошем качестве torrent

Скачивайте на UnionPeer.org фильмы через торрент без регистрации. Новинки кино в хорошем качестве через торрент. На UnionPeer.org можно скачать через торрент фильмы 2014 и 2015 годов. Самые новые фильмы.

Скачать торрент ОТ-пятые Мошенники Dirty Rotten Scoundrels бесплатно через .torrent фильм мультфильм сериал

Статистика раздачи
Размер:  1.68 GB   |    Зарегистрирован:  3 месяца 7 дней   |    .torrent скачан:  24 раза   |   
Раздают:  1  
   
загрузка...
 
Автор Сообщение

Galfimbul

avatar Galfimbul


ОТ-пятые Мошенники / Dirty Rotten Scoundrels

Дата/Год выпуска: 1988
Страна: США
Жанр: комедия, прикольный перевод
Продолжительность: 01:50:21
Перевод: Авторский (одноголосый закадровый) alpok
Русские субтитры: нет

Оригинальная аудиодорожка: нет
Режиссер: Фрэнк Оз

Описание: Лоуренс Джеймисон — аферист-профессионал, работающий на французской Ривьере в богатом городке Бомон-Сюр-Мэр. Прочитав несколько книг по Cаентологии, он выдаёт себя за очень продвинутого индивидуума – Оперирующего Тэтана 5-го уровня – или, если кратко, ОТ 5 (читается: О-Ти 5). Городок наполнен слухами (им же самим и пущенными) о его высокой духовности и об удивительных способностях, которые открываются у человека на уровнях ОТ. Фредди Бенсон — американец-аферист рангом пониже. Случайно увидев книгу с красивым извергающимся вулканом на обложке и запомнив её название “Дианетика: современная наука душевного здоровья”, он разъезжает по миру, приглашая женщин записаться на “Однодневный семинар по основам Дианетики”. Он обещает им, что в случае успешной сдачи экзамена они приобретут взрывную красоту и душевное здоровье. Фредди избирает Бомон-Сюр-Мэр следующим пунктом своего турне. Даже человек, не знакомый с Теорией Вероятностей, согласится, что большая и маленькая акулы аферизма имеют все шансы встретиться. Но, оказывается, большой и маленький – понятия весьма относительные…

Доп. информация:
Важное замечание!
Это самый “несаентологический” из всех моих саентологических смешных переводов. За исключением нескольких терминов - таких, например, как тэ́тан – человек как духовная личность, ОТ (читается о-ти) – Оперирующий (Действующий) Тэтан – продвинутая духовная личность, Преклир – человек, всупивший на путь духовного развития, Одитор – человек, помогающий Преклиру, Супервайзер – человек, инструктирующий студентов на Курсе, - остальные термины легко понять из контекста. Я постарался основный акцент сделать на юморе и игре слов. Кроме того, я наделил второстепенные персонажи специфическими особенностями, которые будут проявляться на протяжении всего фильма.
За исходник видео большое спасибо kingsize87.

Для просмотра рекомендуется VLC media player.

Сэмпл: http://sendfile.su/1412429

качество: BDRip
формат: AVI
Видео: 704x384 (1.83:1), 23.976 fps, XviD build 63 ~2059 kbps avg, 0.32 bit/pixel
Аудио: Аудио: 44.100 kHz, MPEG Layer 3, 2 ch, ~128.00 kbps avg
ОбщееПолное имя : D:\OT_pyatye_moshenniki\OT_pyatye_moshenniki\OT_pyatye_moshenniki_[by_alpok].aviФормат : AVIФормат/Информация : Audio Video InterleaveРазмер файла : 1,68 ГбайтПродолжительность : 1 ч. 50 м.Общий поток : 2180 Кбит/секНазвание фильма : Отпетые мошенники / Dirty Rotten Scoundrels (1988) BDRipРежиссёр : Vиkt0RЖанр : Comedy/CrimeПрограмма кодирования : VirtualDubMod 1.5.10.2 (build 2542/release)Библиотека кодирования : VirtualDubMod build 2542/releaseПравообладатель : hqclub.netПримечание : R.G. HQCLUB

ВидеоИдентификатор : 0Формат : MPEG-4 VisualПрофиль формата : Advanced [email protected]Параметр BVOP формата : 1Параметр QPel формата : НетПараметр GMC формата : Без точки переходаПараметр матрицы формата : ВыборочнаяИдентификатор кодека : XVIDИдентификатор кодека/Подсказка : XviDПродолжительность : 1 ч. 50 м.Битрейт : 2042 Кбит/секШирина : 704 пикселяВысота : 384 пикселяСоотношение сторон : 1,85:1Частота кадров : 23,976 кадра/секЦветовое пространство : YUVСубдискретизация насыщенности : 4:2:0Битовая глубина : 8 битТип развёртки : ПрогрессивнаяМетод сжатия : С потерямиБит/(Пиксели*Кадры) : 0.315Размер потока : 1,57 Гбайт (94%)Библиотека кодирования : XviD 63

АудиоИдентификатор : 1Формат : MPEG AudioВерсия формата : Version 1Профиль формата : Layer 3Режим : Joint stereoРасширение режима : MS StereoИдентификатор кодека : 55Идентификатор кодека/Подсказка : MP3Продолжительность : 1 ч. 50 м.Вид битрейта : ПостоянныйБитрейт : 128 Кбит/секКаналы : 2 каналаЧастота : 44,1 КГцМетод сжатия : С потерямиРазмер потока : 101 Мбайт (6%)Выравнивание : Разделение по промежуткамПродолжительность промежутка : 41 мс. (0,99 видеокадр)Время предзагрузки промежутка : 500 мс.


Трекер:  [ 11-Апр-2018 11:42 ]

  

Скачать .torrent

Размер .torrent файла 17 KB


Размер: 1.68 GB
Хэш (hash) релиза: 8f0827ee495726404aaced7d9acce3242c099da4
Подписка на обновления:

Еще никто не оставлял запись к записи скачать торрент ОТ-пятые Мошенники Dirty Rotten Scoundrels . Будь первым!

!Обратная связь