143 Records
Elephant Man The Animal Instinct

Скачать через торрент [ATV3] Герой-одиночка Last Man Standing бесплатно русская версия torrent активатор

Статистика раздачи
Размер:  6.39 GB   |    Зарегистрирован:  11 дней   |    .torrent скачан:  23 раза   |   
Раздают:  1  
   
загрузка...
 
Автор Сообщение

Galfimbul

avatar Galfimbul


Герой-одиночка / Last Man Standing
"Каждый сам за себя"


Год выпуска: 1996
Страна: США
Жанр: боевик, триллер, драма, криминал
Продолжительность: 101 мин. (01:40:53)

Перевод: Многоголосый закадровый перевод и одноголосый закадровый авторский перевод
Оригинальная аудиодорожка: Есть
Cубтитры: Русские полные и английские полные SDH

Режиссёр: Уолтер Хилл
Сценарий: Уолтер Хилл, Рюдзо Кикусима, Акира Куросава
Продюсер: Уолтер Хилл, Майкл Де Лука, Паула Хеллер
Оператор: Ллойд Ахерн II
Композитор: Рай Кудер
Художник: Гари Уисснер, Бэрри Чусид, Дэн Мур
Монтаж: Фриман А. Дейвис
В ролях: Брюс Уиллис, Брюс Дерн, Уильям Сэндерсон, Кристофер Уокен, Дэвид Патрик Келли, Карина Ломбард, Нед Эйзенберг, Александра Пауэрс, Майкл Империоли, Кен Дженкинс

Бюджет: $67 000 000
Сборы в США: $18 115 927
Сборы в мире: + $29 151 074 = $47 267 001

Мировая премьера: 20 сентября 1996
Релиз на DVD: 22 ноября 2007, Союз-Видео

Описание: Америка, времена "сухого закона". Бродяга и наемник Джон Смит по пути к мексиканской границе оказывается в маленьком техасском городке, где обосновались две банды бутлегеров - ирландца Дойла и итальянца Строззи, ведущие между собой бесконечные кровавые разборки.
Примыкая по очереди то к одной, то к другой банде, разряжая свой пистолет то в одних гангстеров, то в других, Смит на самом деле преследует свои собственные цели...
Качество исходника: WEB-DL 1080p (BlueBird)
Качество: WEB-DL
Тип: 1080p
Контейнер: m4v
Видео: 1920x1080 at 23.976 fps, MPEG-4 AVC, ~5120 kbps avg
Аудио#1: Russian: 48 kHz, ААС, 2/0 (L,R), ~160.00 kbps avg |Многоголосый закадровый, Союз-Видео|
Аудио#2: Russian: 48 kHz, ААС, 2/0 (L,R), ~160.00 kbps avg |Многоголосый закадровый, D2Lab|
Аудио#3: Russian: 48 kHz, ААС, 2/0 (L,R), ~160.00 kbps avg |Многоголосый закадровый, Россия|
Аудио#4: Russian: 48 kHz, ААС, 2/0 (L,R), ~160.00 kbps avg |Многоголосый закадровый, НТВ|
Аудио#5: Russian: 48 kHz, ААС, 2/0 (L,R), ~160.00 kbps avg |Одноголосый закадровый, А. Гаврилов|
Аудио#6: Russian: 48 kHz, ААС, 2/0 (L,R), ~160.00 kbps avg |Одноголосый закадровый, Ю. Живов|
Аудио#7: Russian: 48 kHz, ААС, 2/0 (L,R), ~160.00 kbps avg |Одноголосый закадровый, В. Горчаков|
Аудио#8: Russian: 48 kHz, ААС, 2/0 (L,R), ~160.00 kbps avg |Одноголосый закадровый, Леша-Прапорщик|
Аудио#9: English: 48 kHz, ААС, 2/0 (L,R), ~160.00 kbps avg
Аудио#10: Russian: 48 kHz, AC3, 3/2 (L,C,R,l,r) + LFE ch, ~448.00 kbps avg |Многоголосый закадровый, Союз-Видео|
Аудио#11: Russian: 48 kHz, AC3, 3/2 (L,C,R,l,r) + LFE ch, ~448.00 kbps avg |Многоголосый закадровый, D2Lab|
Аудио#12: Russian: 48 kHz, AC3, 3/2 (L,C,R,l,r) + LFE ch, ~640.00 kbps avg |Одноголосый закадровый, А. Гаврилов|
Аудио#13: Russian: 48 kHz, AC3, 3/2 (L,C,R,l,r) + LFE ch, ~640.00 kbps avg |Одноголосый закадровый, Ю. Живов|
Аудио#14: English: 48 kHz, AC3, 3/2 (L,C,R,l,r) + LFE ch, ~640.00 kbps avg
Субтитры №1: Russian: |Полные, Censored |
Субтитры №2: Russian: |Полные, Союз-Видео|
Субтитры №3: English: |Полные, SDH|
Фильм был запрещён к показу в Малайзии.

Name: ГЕРОЙ-ОДИНОЧКА (1996)
Artist: Walter Hill
Genre: Action & Adventure
Release Date: 1996-09-20T08:00:00Z
Description: Америка, времена "сухого закона". Бродяга и наемник Джон Смит по пути к мексиканской границе оказывается в маленьком техасском городке, где обосновались две банды бутлегеров - ирландца Дойла и итальянца Строззи, ведущие между собой бесконечные кровавые разборки. Примыкая по очереди то к одной, то к другой банде, разряжая свой пистолет то в одних гангстеров, то в других, Смит на самом деле преследует свои собственные цели...
Long Description: Америка, времена "сухого закона". Бродяга и наемник Джон Смит по пути к мексиканской границе оказывается в маленьком техасском городке, где обосновались две банды бутлегеров - ирландца Дойла и итальянца Строззи, ведущие между собой бесконечные кровавые разборки.
Примыкая по очереди то к одной, то к другой банде, разряжая свой пистолет то в одних гангстеров, то в других, Смит на самом деле преследует свои собственные цели...
Rating: 16+
Studio: WB
Cast: Брюс Уиллис, Брюс Дерн, Уильям Сэндерсон, Кристофер Уокен, Дэвид Патрик Келли, Карина Ломбард, Нед Эйзенберг, Александра Пауэрс, Майкл Империоли, Кен Дженкинс
Director: Уолтер Хилл
Producers: Уолтер Хилл, Майкл Де Лука, Паула Хеллер
Screenwriters: Уолтер Хилл, Рюдзо Кикусима, Акира Куросава
Copyright: © 1996 Warner Bros. Entertainment Inc. Все права защищены.
contentID: 691044175
XID: Apple:vendor_id:1996-5183
Sort Name: ГЕРОЙ-ОДИНОЧКА (1996)
Name: Last Man Standing (1996)
Artist: Walter Hill
Genre: Drama
Release Date: 1996-09-20T08:00:00Z
Description: Америка, времена "сухого закона". Бродяга и наемник Джон Смит по пути к мексиканской границе оказывается в маленьком техасском городке, где обосновались две банды бутлегеров - ирландца Дойла и итальянца Строззи, ведущие между собой бесконечные кровавые разборки. Примыкая по очереди то к одной, то к другой банде, разряжая свой пистолет то в одних гангстеров, то в других, Смит на самом деле преследует свои собственные цели...
Long Description: Америка, времена "сухого закона". Бродяга и наемник Джон Смит по пути к мексиканской границе оказывается в маленьком техасском городке, где обосновались две банды бутлегеров - ирландца Дойла и итальянца Строззи, ведущие между собой бесконечные кровавые разборки.
Примыкая по очереди то к одной, то к другой банде, разряжая свой пистолет то в одних гангстеров, то в других, Смит на самом деле преследует свои собственные цели...
Rating: R
Studio: Warner Bros.
Cast: Брюс Уиллис, Брюс Дерн, Уильям Сэндерсон, Кристофер Уокен, Дэвид Патрик Келли, Карина Ломбард, Нед Эйзенберг, Александра Пауэрс, Майкл Империоли, Кен Дженкинс
Director: Уолтер Хилл
Producers: Уолтер Хилл, Майкл Де Лука, Паула Хеллер
Screenwriters: Уолтер Хилл, Рюдзо Кикусима, Акира Куросава
Copyright: © 1996 Warner Bros. Entertainment Inc. Все права защищены.
contentID: 592806509
XID: Apple:vendor_id:1996-5183
Sort Name: Last Man Standing (1996)
General
Complete name                            : Last Man Standing (1996) (1080p HD).m4v
Format                                   : MPEG-4
Codec ID                                 : M4V  (M4V /M4A /mp42/isom)
File size                                : 6.39 GiB
Duration                                 : 1h 41mn
Overall bit rate mode                    : Variable
Overall bit rate                         : 9 056 Kbps
Movie name                               : Last Man Standing (1996)
Performer                                : Walter Hill
Director                                 : Уолтер Хилл
Actor                                    : Брюс Уиллис / Брюс Дерн / Уильям Сэндерсон / Кристофер Уокен / Дэвид Патрик Келли / Карина Ломбард / Нед Эйзенберг / Александра Пауэрс / Майкл Империоли / Кен Дженкинс
Screenplay by                            : Уолтер Хилл / Рюдзо Кикусима / Акира Куросава
Producer                                 : Уолтер Хилл / Майкл Де Лука / Паула Хеллер
Production studio                        : Warner Bros.
Genre                                    : Drama
ContentType                              : Short Film
Description                              : Америка, времена "сухого закона". Бродяга и наемник Джон Смит по пути к мексиканской границе оказывается в маленьком техасском городке, где обосновались две банды бутлегеров - ирландца Дойла и итальянца Строззи, ведущие между собой бесконечные кровавые разборки. Примыкая по очереди то к одной, то к другой банде, разряжая свой пистолет то в одних гангстеров, то в других, Смит на самом деле преследует свои собственные цели...
Recorded date                            : UTC 1996-09-20 08:00:00
Encoded date                             : UTC 2018-04-09 19:47:56
Tagged date                              : UTC 2018-04-10 06:45:00
Copyright                                : © 1996 Warner Bros. Entertainment Inc. Все права защищены.
Cover                                    : Yes
Rating                                   : None
Title/Sort                               : Last Man Standing
LongDescription                          : Америка, времена "сухого закона". Бродяга и наемник Джон Смит по пути к мексиканской границе оказывается в маленьком техасском городке, где обосновались две банды бутлегеров - ирландца Дойла и итальянца Строззи, ведущие между собой бесконечные кровавые разборки. / Примыкая по очереди то к одной, то к другой банде, разряжая свой пистолет то в одних гангстеров, то в других, Смит на самом деле преследует свои собственные цели...
AppleStoreCatalogID                      : 592806509
Vendor                                   : Apple:vendor_id:1996-5183
ContentRating                            : mpaa|R|400|

Video #1
ID                                       : 1
Format                                   : AVC
Format/Info                              : Advanced Video Codec
Format profile                           : [email protected]
Format settings                          : CABAC / 4 Ref Frames
Format settings, CABAC                   : Yes
Format settings, ReFrames                : 4 frames
Codec ID                                 : avc1
Codec ID/Info                            : Advanced Video Coding
Duration                                 : 1h 40mn
Bit rate                                 : 5 120 Kbps
Width                                    : 1 920 pixels
Height                                   : 1 080 pixels
Display aspect ratio                     : 16:9
Frame rate mode                          : Variable
Frame rate                               : 23.976 fps
Minimum frame rate                       : 23.810 fps
Maximum frame rate                       : 24.390 fps
Color space                              : YUV
Chroma subsampling                       : 4:2:0
Bit depth                                : 8 bits
Scan type                                : Progressive
Bits/(Pixel*Frame)                       : 0.103
Stream size                              : 3.46 GiB (54%)
Title                                    : Main Program
Writing library                          : x264 core 142
Encoding settings                        : cabac=1 / ref=3 / deblock=1:0:0 / analyse=0x3:0x113 / me=hex / subme=7 / psy=1 / psy_rd=1.00:0.00 / mixed_ref=1 / me_range=16 / chroma_me=1 / trellis=1 / 8x8dct=1 / cqm=0 / deadzone=21,11 / fast_pskip=1 / chroma_qp_offset=-2 / threads=48 / lookahead_threads=8 / sliced_threads=0 / nr=0 / decimate=1 / interlaced=0 / bluray_compat=0 / constrained_intra=0 / bframes=6 / b_pyramid=2 / b_adapt=1 / b_bias=0 / direct=1 / weightb=1 / open_gop=0 / weightp=2 / keyint=200 / keyint_min=20 / scenecut=0 / intra_refresh=0 / rc_lookahead=40 / rc=2pass / mbtree=1 / bitrate=5120 / ratetol=1.0 / qcomp=0.60 / qpmin=0 / qpmax=69 / qpstep=4 / cplxblur=20.0 / qblur=0.5 / vbv_maxrate=7680 / vbv_bufsize=20480 / nal_hrd=none / filler=0 / ip_ratio=1.40 / aq=1:1.00
Language                                 : English
Encoded date                             : UTC 2018-04-09 19:47:56
Tagged date                              : UTC 2018-04-09 21:13:09
Menus                                    : 19,20

Video #2
ID                                       : 20
Format                                   : JPEG
Codec ID                                 : jpeg
Duration                                 : 1h 40mn
Bit rate mode                            : Variable
Bit rate                                 : 1 350 bps
Width                                    : 640 pixels
Height                                   : 360 pixels
Display aspect ratio                     : 16:9
Frame rate mode                          : Variable
Frame rate                               : 0.005 fps
Minimum frame rate                       : 0.002 fps
Maximum frame rate                       : 0.014 fps
Color space                              : YUV
Chroma subsampling                       : 4:2:0
Bit depth                                : 8 bits
Compression mode                         : Lossy
Bits/(Pixel*Frame)                       : 1.172
Stream size                              : 923 KiB (0%)
Title                                    : Chapter Images
Language                                 : English
Default                                  : No
Encoded date                             : UTC 2018-04-09 21:13:27
Tagged date                              : UTC 2018-04-09 21:13:28
Menu For                                 : 1
ColorSpace_ICC                           : RGB

Audio #1
ID                                       : 2
Format                                   : AAC
Format/Info                              : Advanced Audio Codec
Format profile                           : LC
Codec ID                                 : mp4a-40-2
Duration                                 : 1h 40mn
Bit rate mode                            : Variable
Bit rate                                 : 165 Kbps
Maximum bit rate                         : 258 Kbps
Channel(s)                               : 2 channels
Channel positions                        : Front: L R
Sampling rate                            : 48.0 KHz
Frame rate                               : 46.875 fps (1024 SPF)
Compression mode                         : Lossy
Stream size                              : 119 MiB (2%)
Title                                    : Russian MVO Souz-Video Stereo
Language                                 : Russian
Default                                  : Yes
Alternate group                          : 1
Encoded date                             : UTC 2018-04-09 19:47:56
Tagged date                              : UTC 2018-04-09 19:48:16
Fallback From                            : 11
Menus                                    : 19

Audio #2
ID                                       : 3
Format                                   : AAC
Format/Info                              : Advanced Audio Codec
Format profile                           : LC
Codec ID                                 : mp4a-40-2
Duration                                 : 1h 41mn
Bit rate mode                            : Variable
Bit rate                                 : 165 Kbps
Maximum bit rate                         : 256 Kbps
Channel(s)                               : 2 channels
Channel positions                        : Front: L R
Sampling rate                            : 48.0 KHz
Frame rate                               : 46.875 fps (1024 SPF)
Compression mode                         : Lossy
Stream size                              : 119 MiB (2%)
Title                                    : Russian MVO D2Lab Stereo
Language                                 : Russian
Default                                  : No
Alternate group                          : 1
Encoded date                             : UTC 2018-04-09 19:47:56
Tagged date                              : UTC 2018-04-09 19:48:16
Fallback From                            : 12

Audio #3
ID                                       : 4
Format                                   : AAC
Format/Info                              : Advanced Audio Codec
Format profile                           : LC
Codec ID                                 : mp4a-40-2
Duration                                 : 1h 41mn
Bit rate mode                            : Variable
Bit rate                                 : 121 Kbps
Maximum bit rate                         : 136 Kbps
Channel(s)                               : 2 channels
Channel positions                        : Front: L R
Sampling rate                            : 48.0 KHz
Frame rate                               : 46.875 fps (1024 SPF)
Compression mode                         : Lossy
Stream size                              : 87.1 MiB (1%)
Title                                    : Russian MVO TK Russia Stereo
Language                                 : Russian
Default                                  : No
Alternate group                          : 1
Encoded date                             : UTC 2018-04-09 19:47:56
Tagged date                              : UTC 2018-04-09 19:48:16

Audio #4
ID                                       : 5
Format                                   : AAC
Format/Info                              : Advanced Audio Codec
Format profile                           : LC
Codec ID                                 : mp4a-40-2
Duration                                 : 1h 41mn
Bit rate mode                            : Variable
Bit rate                                 : 128 Kbps
Maximum bit rate                         : 143 Kbps
Channel(s)                               : 2 channels
Channel positions                        : Front: L R
Sampling rate                            : 48.0 KHz
Frame rate                               : 46.875 fps (1024 SPF)
Compression mode                         : Lossy
Stream size                              : 92.3 MiB (1%)
Title                                    : Russian MVO HTB Stereo
Language                                 : Russian
Default                                  : No
Alternate group                          : 1
Encoded date                             : UTC 2018-04-09 19:47:56
Tagged date                              : UTC 2018-04-09 19:48:16

Audio #5
ID                                       : 6
Format                                   : AAC
Format/Info                              : Advanced Audio Codec
Format profile                           : LC
Codec ID                                 : mp4a-40-2
Duration                                 : 1h 41mn
Bit rate mode                            : Variable
Bit rate                                 : 165 Kbps
Maximum bit rate                         : 263 Kbps
Channel(s)                               : 2 channels
Channel positions                        : Front: L R
Sampling rate                            : 48.0 KHz
Frame rate                               : 46.875 fps (1024 SPF)
Compression mode                         : Lossy
Stream size                              : 119 MiB (2%)
Title                                    : Russian AVO A.Gavrilov Stereo
Language                                 : Russian
Default                                  : No
Alternate group                          : 1
Encoded date                             : UTC 2018-04-09 19:47:56
Tagged date                              : UTC 2018-04-09 19:48:16
Fallback From                            : 13

Audio #6
ID                                       : 7
Format                                   : AAC
Format/Info                              : Advanced Audio Codec
Format profile                           : LC
Codec ID                                 : mp4a-40-2
Duration                                 : 1h 41mn
Bit rate mode                            : Variable
Bit rate                                 : 165 Kbps
Maximum bit rate                         : 268 Kbps
Channel(s)                               : 2 channels
Channel positions                        : Front: L R
Sampling rate                            : 48.0 KHz
Frame rate                               : 46.875 fps (1024 SPF)
Compression mode                         : Lossy
Stream size                              : 119 MiB (2%)
Title                                    : Russian AVO U.Zhivov Stereo
Language                                 : Russian
Default                                  : No
Alternate group                          : 1
Encoded date                             : UTC 2018-04-09 19:47:56
Tagged date                              : UTC 2018-04-09 19:48:16
Fallback From                            : 14

Audio #7
ID                                       : 8
Format                                   : AAC
Format/Info                              : Advanced Audio Codec
Format profile                           : LC
Codec ID                                 : mp4a-40-2
Duration                                 : 1h 40mn
Bit rate mode                            : Variable
Bit rate                                 : 110 Kbps
Maximum bit rate                         : 234 Kbps
Channel(s)                               : 2 channels
Channel positions                        : Front: L R
Sampling rate                            : 48.0 KHz
Frame rate                               : 46.875 fps (1024 SPF)
Compression mode                         : Lossy
Stream size                              : 79.2 MiB (1%)
Title                                    : Russian AVO V.Gorchakov Stereo
Language                                 : Russian
Default                                  : No
Alternate group                          : 1
Encoded date                             : UTC 2018-04-09 19:47:56
Tagged date                              : UTC 2018-04-09 19:48:16

Audio #8
ID                                       : 9
Format                                   : AAC
Format/Info                              : Advanced Audio Codec
Format profile                           : LC
Codec ID                                 : mp4a-40-2
Duration                                 : 1h 41mn
Bit rate mode                            : Variable
Bit rate                                 : 132 Kbps
Maximum bit rate                         : 242 Kbps
Channel(s)                               : 2 channels
Channel positions                        : Front: L R
Sampling rate                            : 48.0 KHz
Frame rate                               : 46.875 fps (1024 SPF)
Compression mode                         : Lossy
Stream size                              : 94.7 MiB (1%)
Title                                    : Russian AVO Lesha Praporschik Stereo
Language                                 : Russian
Default                                  : No
Alternate group                          : 1
Encoded date                             : UTC 2018-04-09 19:47:56
Tagged date                              : UTC 2018-04-09 19:48:16

Audio #9
ID                                       : 10
Format                                   : AAC
Format/Info                              : Advanced Audio Codec
Format profile                           : LC
Codec ID                                 : mp4a-40-2
Duration                                 : 1h 41mn
Bit rate mode                            : Variable
Bit rate                                 : 165 Kbps
Maximum bit rate                         : 265 Kbps
Channel(s)                               : 2 channels
Channel positions                        : Front: L R
Sampling rate                            : 48.0 KHz
Frame rate                               : 46.875 fps (1024 SPF)
Compression mode                         : Lossy
Stream size                              : 119 MiB (2%)
Title                                    : English Stereo
Language                                 : English
Default                                  : No
Alternate group                          : 1
Encoded date                             : UTC 2018-04-09 19:47:56
Tagged date                              : UTC 2018-04-09 19:48:16
Fallback From                            : 15

Audio #10
ID                                       : 11
Format                                   : AC-3
Format/Info                              : Audio Coding 3
Codec ID                                 : ac-3
Duration                                 : 1h 40mn
Bit rate mode                            : Constant
Bit rate                                 : 448 Kbps
Channel(s)                               : 6 channels
Channel positions                        : Front: L C R, Side: L R, LFE
Sampling rate                            : 48.0 KHz
Frame rate                               : 31.250 fps (1536 SPF)
Bit depth                                : 16 bits
Compression mode                         : Lossy
Stream size                              : 323 MiB (5%)
Title                                    : Russian MVO Souz-Video DD 5.1
Language                                 : Russian
Service kind                             : Complete Main
Default                                  : Inherited From: 2
Alternate group                          : 1
Encoded date                             : UTC 2018-04-09 19:47:56
Tagged date                              : UTC 2018-04-09 21:13:09
Fallback To                              : 2

Audio #11
ID                                       : 12
Format                                   : AC-3
Format/Info                              : Audio Coding 3
Codec ID                                 : ac-3
Duration                                 : 1h 41mn
Bit rate mode                            : Constant
Bit rate                                 : 448 Kbps
Channel(s)                               : 6 channels
Channel positions                        : Front: L C R, Side: L R, LFE
Sampling rate                            : 48.0 KHz
Frame rate                               : 31.250 fps (1536 SPF)
Bit depth                                : 16 bits
Compression mode                         : Lossy
Stream size                              : 324 MiB (5%)
Title                                    : Russian MVO D2Lab DD 5.1
Language                                 : Russian
Service kind                             : Complete Main
Default                                  : No
Alternate group                          : 1
Encoded date                             : UTC 2018-04-09 19:47:56
Tagged date                              : UTC 2018-04-09 21:13:09
Fallback To                              : 3

Audio #12
ID                                       : 13
Format                                   : AC-3
Format/Info                              : Audio Coding 3
Codec ID                                 : ac-3
Duration                                 : 1h 41mn
Bit rate mode                            : Constant
Bit rate                                 : 640 Kbps
Channel(s)                               : 6 channels
Channel positions                        : Front: L C R, Side: L R, LFE
Sampling rate                            : 48.0 KHz
Frame rate                               : 31.250 fps (1536 SPF)
Bit depth                                : 16 bits
Compression mode                         : Lossy
Stream size                              : 462 MiB (7%)
Title                                    : Russian AVO A.Gavrilov DD 5.1
Language                                 : Russian
Service kind                             : Complete Main
Default                                  : No
Alternate group                          : 1
Encoded date                             : UTC 2018-04-09 19:47:56
Tagged date                              : UTC 2018-04-09 19:48:11
Fallback To                              : 6

Audio #13
ID                                       : 14
Format                                   : AC-3
Format/Info                              : Audio Coding 3
Codec ID                                 : ac-3
Duration                                 : 1h 41mn
Bit rate mode                            : Constant
Bit rate                                 : 640 Kbps
Channel(s)                               : 6 channels
Channel positions                        : Front: L C R, Side: L R, LFE
Sampling rate                            : 48.0 KHz
Frame rate                               : 31.250 fps (1536 SPF)
Bit depth                                : 16 bits
Compression mode                         : Lossy
Stream size                              : 462 MiB (7%)
Title                                    : Russian AVO U.Zhivov DD 5.1
Language                                 : Russian
Service kind                             : Complete Main
Default                                  : No
Alternate group                          : 1
Encoded date                             : UTC 2018-04-09 19:47:56
Tagged date                              : UTC 2018-04-09 19:48:11
Fallback To                              : 7

Audio #14
ID                                       : 15
Format                                   : AC-3
Format/Info                              : Audio Coding 3
Codec ID                                 : ac-3
Duration                                 : 1h 41mn
Bit rate mode                            : Constant
Bit rate                                 : 640 Kbps
Channel(s)                               : 6 channels
Channel positions                        : Front: L C R, Side: L R, LFE
Sampling rate                            : 48.0 KHz
Frame rate                               : 31.250 fps (1536 SPF)
Bit depth                                : 16 bits
Compression mode                         : Lossy
Stream size                              : 462 MiB (7%)
Title                                    : English DD 5.1
Language                                 : English
Service kind                             : Complete Main
Default                                  : No
Alternate group                          : 1
Encoded date                             : UTC 2018-04-09 19:47:56
Tagged date                              : UTC 2018-04-09 19:48:11
Fallback To                              : 10

Text #1
ID                                       : 16
Format                                   : Timed Text
Muxing mode                              : sbtl
Codec ID                                 : tx3g
Duration                                 : 1h 36mn
Bit rate mode                            : Variable
Bit rate                                 : 97 bps
Stream size                              : 68.5 KiB (0%)
Title                                    : Russian censored Subtitle
Language                                 : Russian
Default                                  : Yes
Forced                                   : No
Alternate group                          : 2
Encoded date                             : UTC 2018-04-09 19:47:56
Tagged date                              : UTC 2018-04-09 19:47:56

Text #2
ID                                       : 17
Format                                   : Timed Text
Muxing mode                              : sbtl
Codec ID                                 : tx3g
Duration                                 : 1h 36mn
Bit rate mode                            : Variable
Bit rate                                 : 83 bps
Stream size                              : 58.6 KiB (0%)
Title                                    : Russian from Souz-Video Subtitle
Language                                 : Russian
Default                                  : No
Forced                                   : No
Alternate group                          : 2
Encoded date                             : UTC 2018-04-09 19:47:56
Tagged date                              : UTC 2018-04-09 19:47:56

Text #3
ID                                       : 18
Format                                   : Timed Text
Muxing mode                              : sbtl
Codec ID                                 : tx3g
Duration                                 : 1h 36mn
Bit rate mode                            : Variable
Bit rate                                 : 69 bps
Stream size                              : 48.3 KiB (0%)
Title                                    : English SDH Subtitle
Language                                 : English
Default                                  : No
Forced                                   : No
Alternate group                          : 2
Encoded date                             : UTC 2018-04-09 19:47:56
Tagged date                              : UTC 2018-04-09 19:47:56

Menu #1
00:00:00.000                             : Wanda's Bail
00:03:58.571                             : The Hijack
00:08:32.011                             : Caught With His Pants Down
00:10:36.427                             : A Job With Strazzi
00:12:35.755                             : Paying the Damages
00:18:08.670                             : First Customer of the Week
00:22:27.888                             : Rough Day in Jericho
00:25:33.532                             : Main Titles
00:27:22.641                             : Working Both Sides
00:35:39.053                             : "Hickey's Back"
00:37:14.523                             : A Friendly Phone Call
00:40:34.431                             : Setting Up Giorgio
00:43:16.677                             : El Morado
00:46:10.058                             : "My Fear is My Curse"
00:47:47.698                             : One Gang Too Many
00:51:40.680                             : Making the Exchange
00:54:55.292                             : Lucy Wants Out
00:58:26.920                             : Doyle's new man
01:00:44.057                             : Felina's Freedom
01:04:25.361                             : Scene of the Slaughter
01:08:33.067                             : A Cold Bath
01:13:40.916                             : Red Rain
01:19:01.945                             : Roadhouse Massacre
01:21:35.891                             : Time to Heal
01:25:13.483                             : Playing Out a Bad Hand
01:30:25.711                             : Last Man Standing
01:34:55.773                             : Better Off Dead
01:36:07.219                             : End Credits

Menu #2
ID                                       : 19
Codec ID                                 : text
Duration                                 : 1h 40mn
Title                                    : Chapter Titles
Language                                 : English
Encoded date                             : UTC 2018-04-09 21:13:10
Tagged date                              : UTC 2018-04-09 21:13:10
Menu For                                 : 2,1
00:00:00.000                             : Wanda's Bail
00:03:58.571                             : The Hijack
00:08:32.011                             : Caught With His Pants Down
00:10:36.427                             : A Job With Strazzi
00:12:35.755                             : Paying the Damages
00:18:08.670                             : First Customer of the Week
00:22:27.888                             : Rough Day in Jericho
00:25:33.532                             : Main Titles
00:27:22.641                             : Working Both Sides
00:35:39.053                             : "Hickey's Back"
00:37:14.523                             : A Friendly Phone Call
00:40:34.431                             : Setting Up Giorgio
00:43:16.677                             : El Morado
00:46:10.058                             : "My Fear is My Curse"
00:47:47.698                             : One Gang Too Many
00:51:40.680                             : Making the Exchange
00:54:55.292                             : Lucy Wants Out
00:58:26.920                             : Doyle's new man
01:00:44.057                             : Felina's Freedom
01:04:25.361                             : Scene of the Slaughter
01:08:33.067                             : A Cold Bath
01:13:40.916                             : Red Rain
01:19:01.945                             : Roadhouse Massacre
01:21:35.891                             : Time to Heal
01:25:13.483                             : Playing Out a Bad Hand
01:30:25.711                             : Last Man Standing
01:34:55.773                             : Better Off Dead
01:36:07.219                             : End Credits
Bit rate mode                            : VBR

<div class="q-wrap">
<div class="q-head"><b>Цитата:</b></div>
<div class="q">

Исходник видео с Amazom (хотя по моим ощущениям перекодированный);
За помощь с получением исходника спасибо arthura2g (HDBits);
Open Matte версия фильма, имеет большее наполнение кадра, по сравнению с Blu-Ray.

</div>
</div>
Релиз подготовлен для просмотра на Apple TV, iPad, iPhone, iPod Touch.
Для просмотра данного релиза на компьютере с ОС Windows рекомендуется использовать VLC media player

Трекер:  [ 10-Апр-2018 21:06 ]

  

Скачать .torrent

Размер .torrent файла 64 KB


Размер: 6.39 GB
Хэш (hash) релиза: bd43dee241306f4df3808b2dc36ba7958addc5b6

Еще никто не оставлял запись к записи скачать торрент [ATV3] Герой-одиночка Last Man Standing . Будь первым!

!Обратная связь