The.Handmaids.Tale.S01E01.NORDiC.720p.WEBRip.x264-MOROSE-NO.srt | APKPure untuk Android | Blizzard Entertainment, Inc.

Скачать через торрент Довлатов Фильм бесплатно в хорошем качестве torrent

Скачивайте на UnionPeer.org фильмы через торрент без регистрации. Новинки кино в хорошем качестве через торрент. На UnionPeer.org можно скачать через торрент фильмы 2014 и 2015 годов. Самые новые фильмы.

Скачать торрент Довлатов бесплатно через .torrent фильм мультфильм сериал

Статистика раздачи
Размер:  4.43 GB   |    Зарегистрирован:  3 месяца 11 дней   |    .torrent скачан:  88 раз   |   
Раздают:  2  
   
загрузка...
 
Автор Сообщение

Galfimbul

avatar Galfimbul


Довлатов

Страна: Россия, Польша, Сербия
Студия: Apple Film Productions, Art & Popcorn, Первый канал
Жанр: драма, мелодрама
Год выпуска: 2018
Продолжительность: 02:06:10

Перевод: Не требуется
Субтитры: нет
Оригинальная аудиодорожка: русский

Режиссёр: Алексей Герман мл.

В ролях: Милан Марич, Хелена Суецкая, Ева Герр, Артур Бесчастный, Данила Козловский, Антон Шагин, Светлана Ходченкова, Елена Лядова, Игорь Митюшкин, Пётр Гонсовский, Тамара Оганесян, Анна Екатерининская, Сергей Толстов, Ханна Слешиньская, Аревик Геворкян
Описание: Фильм о нескольких днях из жизни писателя Сергея Довлатова в Ленинграде начала 70-х годов накануне эмиграции его друга, будущего лауреата Нобелевской премии Иосифа Бродского. Это круговорот из парадоксальных и смешных ситуаций. Столкновение с криминалом, светская и литературная жизнь Ленинграда, киностудия «Ленфильм», музыка, чтение стихов, ремесло журналиста, страстное желание купить для своей дочери куклу, которую не достать нигде.
В череде жизненных коллизий, иногда смешных, а иногда пронзительных, зритель открывает для себя жизнь тонкого, блестящего, ироничного человека, который выбирает свой творческий путь, чтобы позже превратиться в одного из самых популярных русских прозаиков XX века.

Sample

Тип релиза: WEB-DL 1080p
Контейнер: MKV

Видео: MPEG4 AVC Video, H264, 1920x802, 24 fps, 4545 kbps
Аудио: Russian (AC3, 6 ch, 384 kbps, 16 bits, 48.0 KHz) - оригинал
General
Unique ID : 247532348285685451218717692869738008401 (0xBA38FF05712AAE70A7D2A9BDA2988F51)
Complete name : D:\Довлатов 2018 WEB-DL 1080p.mkv
Format : Matroska
Format version : Version 2
File size : 4.43 GiB
Duration : 2h 6mn
Overall bit rate : 5 030 Kbps
Encoded date : UTC 2018-04-08 20:28:32
Writing application : mkvmerge v8.3.0 ('Over the Horizon') 64bit
Writing library : libebml v1.3.1 + libmatroska v1.4.2
DURATION : 02:06:10.976000000
NUMBER_OF_FRAMES : 236593
NUMBER_OF_BYTES : 363406848
_STATISTICS_WRITING_APP : mkvmerge v8.3.0 ('Over the Horizon') 64bit
_STATISTICS_WRITING_DATE_UTC : 2018-04-08 20:28:32
_STATISTICS_TAGS : BPS DURATION NUMBER_OF_FRAMES NUMBER_OF_BYTES

Video
ID : 1
Format : AVC
Format/Info : Advanced Video Codec
Format profile : [email protected]
Format settings, CABAC : Yes
Format settings, ReFrames : 5 frames
Codec ID : V_MPEG4/ISO/AVC
Duration : 2h 6mn
Bit rate : 4 545 Kbps
Width : 1 920 pixels
Height : 802 pixels
Display aspect ratio : 2.40:1
Frame rate mode : Constant
Frame rate : 24.000 fps
Color space : YUV
Chroma subsampling : 4:2:0
Bit depth : 8 bits
Scan type : Progressive
Bits/(Pixel*Frame) : 0.123
Stream size : 4.01 GiB (90%)
Language : English
Default : Yes
Forced : No
Color primaries : BT.709
Transfer characteristics : BT.709
Matrix coefficients : BT.709

Audio
ID : 2
Format : AC-3
Format/Info : Audio Coding 3
Mode extension : CM (complete main)
Format settings, Endianness : Big
Codec ID : A_AC3
Duration : 2h 6mn
Bit rate mode : Constant
Bit rate : 384 Kbps
Channel count : 6 channels
Channel positions : Front: L C R, Side: L R, LFE
Sampling rate : 48.0 KHz
Bit depth : 16 bits
Compression mode : Lossy
Stream size : 347 MiB (8%)
Language : Russian
Default : Yes
Forced : No

Menu
00:00:00.000 : en:Глава 1
00:06:56.916 : en:Глава 2
00:16:00.291 : en:Глава 3
00:25:23.124 : en:Глава 4
00:31:55.082 : en:Глава 5
00:38:19.707 : en:Глава 6
00:46:15.290 : en:Глава 7
00:53:14.040 : en:Глава 8
01:01:16.540 : en:Глава 9
01:06:15.540 : en:Глава 10
01:11:36.706 : en:Глава 11
01:16:55.497 : en:Глава 12
01:25:34.330 : en:Глава 13
01:33:43.038 : en:Глава 14
01:38:31.663 : en:Глава 15
01:45:28.704 : en:Глава 16
01:51:57.120 : en:Глава 17


Трекер:  [ 10-Апр-2018 13:30 ]

  

Скачать .torrent

Размер .torrent файла 22 KB


Размер: 4.43 GB
Хэш (hash) релиза: 06844d316b9320d564f301f5aa54670a60451379
Подписка на обновления:

Торренты, похожие на Довлатов скачать торрент

Форум Название Автор Размер S L Добавлен
Российские фильмы до 2016 ·· Довлатов (Алексей Герман-мл.) [2018, драма, мелодрама, WEB-DLRip-AVC] Galfimbul 15593929351.45 GB 2 0 1523343250

09:54

10-Апр-18

Российские фильмы до 2016 ·· Довлатов (Алексей Герман мл.) [2018, драма, мелодрама, биография, WEB-DLRip] Galfimbul 23437393922.18 GB 0 0 1523244263

06:24

9-Апр-18

Российские фильмы до 2016 ·· Довлатов (Алексей Герман мл.) [2018, драма, мелодрама, биография, WEB-DLRip] Galfimbul 15682498561.46 GB 0 0 1523244254

06:24

9-Апр-18

Российские фильмы 2016-2018 (Новинки русского кино) ·· Довлатов (Алексей Герман мл.) [2018 г., драма, мелодрама, WEB-DL 720p] Galfimbul 44478299844.14 GB 0 0 1522912111

10:08

5-Апр-18

Российские фильмы 2016-2018 (Новинки русского кино) ·· Довлатов (Алексей Герман мл.) [2018 г., драма, мелодрама, WEB-DLRip] Galfimbul 22037258242.05 GB 0 0 1522912110

10:08

5-Апр-18

Российские фильмы 2016-2018 (Новинки русского кино) ·· Довлатов (Алексей Герман мл.) [2018 г., драма, мелодрама, WEB-DLRip] Galfimbul 14676213761.37 GB 0 0 1522912109

10:08

5-Апр-18

Российские фильмы 2016-2018 (Новинки русского кино) ·· Довлатов (Алексей Герман мл.) [2018 г., драма, мелодрама, TS] Galfimbul 14675824641.37 GB 2 0 1520318535

09:42

6-Мар-18

Российские фильмы 2016-2018 (Новинки русского кино) ·· Довлатов (Алексей Герман мл.) [2018 г., драма, мелодрама, TS 720p] Galfimbul 29058594572.71 GB 0 0 1520318527

09:42

6-Мар-18

Еще никто не оставлял запись к записи скачать торрент Довлатов . Будь первым!

!Обратная связь