Jai Ho India Uyeshare
DOWNLOAD

Скачать через торрент Хинамацури Hinamatsuri бесплатно Аниме Все серии на русском torrent

Статистика раздачи
Размер:  844 MB   |    Зарегистрирован:  9 дней   |    .torrent скачан:  12 раз   |   
Раздают:  1  
   
загрузка...
 
Автор Сообщение

Galfimbul

avatar Galfimbul


Хинамацури / Hinamatsuri / Hina Festival
Страна: Япония
Год выпуска: 2018
Жанр: Фантастика, повседневность, комедия, мистика, сейнэн
Тип: TV
Продолжительность: 12 эп. по ~24 мин.
Режиссер: Ойкава Кэй
Студия: feel.
Перевод:
Русские субтитры от Crunchyroll
Описание: На относительно успешную голову якудзы Нитты падает загадочная капсула. В капсуле оказалась Хина… девочка с чрезвычайно сильными экстрасенсорными способностями. Первыми под натиском новоприбывшей героини пали коллекционные вазы. Главный вопрос: что ждёт Нитту дальше…©Crunchyroll
Информационные ссылки: World Art | AniDB | MAL
Качество: WEBRip
Тип релиза: Без хардсаба
Формат видео: MKV
Наличие линковки: Нет
Релиз/Автор рипа: Erai-raws
Видео: x264, 8bit, 1920x1080, ~4800 Kbps, 23.976 fps
Аудио Jap: AAC, 44.1kHz, ~128Kbps, 2ch
Субтитры Rus: ASS (внешними файлами)
GeneralUnique ID : 241665554801764161793482874099556497548 (0xB5CF17C525828ED291ADAB18D2B1388C)Complete name : J:\аниме\Hinamatsuri\[Erai-raws] Hinamatsuri - 01v2 [1080p].mkvFormat : MatroskaFormat version : Version 4 / Version 2File size : 844 MiBDuration : 23 min 39 sOverall bit rate : 4 987 kb/sEncoded date : UTC 2018-04-10 05:35:53Writing application : mkvmerge v7.9.0 ('Birds') 64bitWriting library : libebml v1.3.1 + libmatroska v1.4.2

VideoID : 1Format : AVCFormat/Info : Advanced Video CodecFormat profile : [email protected] settings : CABAC / 4 Ref FramesFormat settings, CABAC : YesFormat settings, RefFrames : 4 framesCodec ID : V_MPEG4/ISO/AVCDuration : 23 min 39 sBit rate : 4 857 kb/sWidth : 1 920 pixelsHeight : 1 080 pixelsDisplay aspect ratio : 16:9Frame rate mode : ConstantFrame rate : 23.976 (24000/1001) FPSColor space : YUVChroma subsampling : 4:2:0Bit depth : 8 bitsScan type : ProgressiveBits/(Pixel*Frame) : 0.098Stream size : 822 MiB (97%)Writing library : x264 core 142Encoding settings : cabac=1 / ref=4 / deblock=1:1:1 / analyse=0x3:0x113 / me=umh / subme=8 / psy=1 / psy_rd=0.40:0.00 / mixed_ref=1 / me_range=16 / chroma_me=1 / trellis=1 / 8x8dct=1 / cqm=0 / deadzone=21,11 / fast_pskip=1 / chroma_qp_offset=-2 / threads=12 / lookahead_threads=2 / sliced_threads=0 / nr=0 / decimate=1 / interlaced=0 / bluray_compat=0 / constrained_intra=0 / bframes=3 / b_pyramid=2 / b_adapt=2 / b_bias=0 / direct=3 / weightb=1 / open_gop=0 / weightp=2 / keyint=48 / keyint_min=24 / scenecut=40 / intra_refresh=0 / rc_lookahead=48 / rc=crf / mbtree=1 / crf=15.0 / qcomp=0.60 / qpmin=0 / qpmax=69 / qpstep=4 / vbv_maxrate=8000 / vbv_bufsize=12000 / crf_max=0.0 / nal_hrd=none / filler=0 / ip_ratio=1.40 / aq=1:0.60Default : YesForced : No

AudioID : 2Format : AACFormat/Info : Advanced Audio CodecFormat profile : LCCodec ID : A_AAC-2Duration : 23 min 39 sBit rate : 128 kb/sChannel(s) : 2 channelsChannel positions : Front: L RSampling rate : 44.1 kHzFrame rate : 43.066 FPS (1024 SPF)Compression mode : LossyStream size : 21.7 MiB (3%)Title : JapaneseLanguage : JapaneseDefault : YesForced : No
01. Знакомьтесь, девочка-экстрасенс!


Трекер:  [ 10-Апр-2018 09:01 ]

  

Скачать .torrent

Размер .torrent файла 17 KB


Размер: 844 MB
Хэш (hash) релиза: ddb11108abfc1f81cd975ddcc37b682ab8ca9e59
Подписка на обновления:

Еще никто не оставлял запись к записи скачать торрент Хинамацури Hinamatsuri . Будь первым!

!Обратная связь