VivaVideo: शुल्क वीडियो संपादक, वीडियो मेकर, | Phil Campbell & The Bastard Sons - The Age Of Absurdity (Japanese Edition, 2CD) (2018) | Koi wa Ameagari no You ni : Pocket no Naka no Negaigoto Episode 4

Скачать через торрент Купи меня Фильм бесплатно в хорошем качестве torrent

Скачивайте на UnionPeer.org фильмы через торрент без регистрации. Новинки кино в хорошем качестве через торрент. На UnionPeer.org можно скачать через торрент фильмы 2014 и 2015 годов. Самые новые фильмы.

Скачать торрент Купи меня бесплатно через .torrent фильм мультфильм сериал

Статистика раздачи
Размер:  4.69 GB   |    Зарегистрирован:  3 месяца 8 дней   |    .torrent скачан:  157 раз   |   
Раздают:  1  
   
загрузка...
 
Автор Сообщение

Galfimbul

avatar Galfimbul


Купи меня
Страна: Россия

Жанр: мелодрама
Год выпуска: 2017
Продолжительность: 01:42:33
Перевод: Не требуется
Субтитры: нет
Оригинальная аудиодорожка: русский

Режиссер: Вадим Перельман
В ролях: Анна Адамович, Юлия Хлынина, Светлана Устинова

Описание: Три девушки – три истории о том, как изменить свою жизнь и чем предстоит пожертвовать, чтобы стать «счастливыми». Порше, олигархи, секс, любовь и мечты о красивой жизни. Смогут ли героини добиться успеха, или они сломаются, так и не дойдя до цели?

Тип релиза: HDTV 1080i
Контейнер: TS
Видео: MPEG4 Video (H264) 1920x1080, 25fps, 5765 Кбит/сек, 0.111
Аудио: AC-3, 448 Kbps : 6сн : 48,0 КГц

Сэмпл: http://sendfile.su/1411008
Общее
Идентификатор : 1 (0x1)
Полное имя : C:\Kupi menya_Vadim Perel'man_2017.ts
Формат : MPEG-TS
Размер файла : 4,69 Гбайт
Продолжительность : 1 ч. 42 м.
Режим общего битрейта : Переменный
Общий поток : 6541 Кбит/сек

Видео
Идентификатор : 321 (0x141)
Идентификатор меню : 1 (0x1)
Формат : AVC
Формат/Информация : Advanced Video Codec
Профиль формата : [email protected]
Параметр CABAC формата : Да
Параметр ReFrames формата : 4 кадра
Идентификатор кодека : 27
Продолжительность : 1 ч. 42 м.
Битрейт : 5765 Кбит/сек
Ширина : 1920 пикселей
Высота : 1080 пикселей
Соотношение сторон : 16:9
Частота кадров : 25,000 кадров/сек
Стандарт вещания : Component
Цветовое пространство : YUV
Субдискретизация насыщенности : 4:2:0
Битовая глубина : 8 бит
Тип развёртки : Чересстрочная
Порядок развёртки : Верхнее поле первое
Бит/(Пиксели*Кадры) : 0.111
Размер потока : 4,13 Гбайт (88%)
Основные цвета : BT.709
Характеристики трансфера : BT.709
Коэффициенты матрицы : BT.709
colour_range : Limited

Аудио
Идентификатор : 421 (0x1A5)
Идентификатор меню : 1 (0x1)
Формат : AC-3
Формат/Информация : Audio Coding 3
Расширение режима : CM (complete main)
Параметр Endianness формата : Big
Идентификатор кодека : 6
Продолжительность : 1 ч. 42 м.
Вид битрейта : Постоянный
Битрейт : 448 Кбит/сек
Каналы : 6 каналов
Расположение каналов : Front: L C R, Side: L R, LFE
Частота : 48,0 КГц
Битовая глубина : 16 бит
Метод сжатия : С потерями
Размер потока : 329 Мбайт (7%)
Язык : Russian


Трекер:  [ 10-Апр-2018 02:30 ]

  

Скачать .torrent

Размер .torrent файла 24 KB


Размер: 4.69 GB
Хэш (hash) релиза: e3360d40d834ed84ab3251041c12e3ca907f190c
Подписка на обновления:

Торренты, похожие на Купи меня скачать торрент

Форум Название Автор Размер S L Добавлен
Российские фильмы 2016-2018 (Новинки русского кино) ·%· Купи меня (2018) WEB-DLRip-AVC от ExKinoRay | iTunes Galfimbul 16362788071.52 GB 0 0 1531707645

05:20

16-Июл-18

Российские фильмы 2016-2018 (Новинки русского кино) ·· Купи меня (Вадим Перельман) [2018 г., мелодрама, WEB-DL 720p] iTunes Galfimbul 35786212563.33 GB 0 0 1523505017

06:50

12-Апр-18

Российские фильмы 2016-2018 (Новинки русского кино) ·· Купи меня (Вадим Перельман) [2018 г., мелодрама, WEB-DLRip] iTunes Galfimbul 15648419841.46 GB 1 22 1523505009

06:50

12-Апр-18

Российские фильмы 2016-2018 (Новинки русского кино) ·· Купи меня (Вадим Перельман) [2018 г., мелодрама, HDTVRip] Galfimbul 15481323521.44 GB 0 0 1523123562

20:52

7-Апр-18

Российские фильмы до 2016 ·· Купи меня (Вадим Перельман) [2018, мелодрама, HDTVRip] Galfimbul 15653171201.46 GB 0 0 1523035454

20:24

6-Апр-18

Российские фильмы 2016-2018 (Новинки русского кино) ·· Купи меня (Вадим Перельман) [2018, Драма, мелодрама, HDTVRip] Galfimbul 15804445761.47 GB 0 0 1523017232

15:20

6-Апр-18

Российские фильмы 2016-2018 (Новинки русского кино) ·· Купи меня (Вадим Перельман) [2018 г., мелодрама, TS 720p] Galfimbul 26893117252.5 GB 0 0 1520073940

13:45

3-Мар-18

Российские фильмы 2016-2018 (Новинки русского кино) ·· Купи меня (Вадим Перельман) [2018 г., мелодрама, TS] Galfimbul 14675660801.37 GB 0 0 1520073913

13:45

3-Мар-18

Еще никто не оставлял запись к записи скачать торрент Купи меня . Будь первым!

!Обратная связь