Chapter 5: [END] | Fearless Guys – Road To A Dream | Гений: Пикассо / Genius: Picasso [S02] (2018) WEBRip 720p | Good People

Скачать через торрент Tanjou: Debut бесплатно Аниме Все серии на русском torrent

Статистика раздачи
Размер:  227 MB   |    Зарегистрирован:  3 месяца 12 дней   |    .torrent скачан:  37 раз   |   
Раздают:  2  
   
загрузка...
 
Автор Сообщение

Galfimbul

avatar Galfimbul


Tanjou: Debut / 誕生~Debut~

Страна: Япония
Год выпуска: 1994
Жанр: романтика, повседневность
Тип: OVA
Продолжительность: 27 мин.
Режиссер: Мотидзуки Томоми
Студия: ANIMATE / Studio Pierrot

Описание: Первый эпизод об Аки Ито, обычной девочке-отличнице, которая делает обычные вещи: читает книги, кормит бродячих кошек, обедает в ресторанах с подругой Куми, мечтает стать взрослой и любуется мальчиком, который ей нравится. Однако она узнает, что реальность не всегда добра к мечтательным девушкам. Во втором эпизоде Аки Ито и Куми Танака вместе со своим подругой Саори Фуджимурой выкопают капсулу времени, которую три девочки закопали, прежде чем пойти в начальную школу десять лет назад. Перебирая мелочи в капсуле, они замечают предметы, которых здесь быть не должно. Вместе они пытаются раскрыть секреты четвертой девушки, чье имя и местонахождение неизвестны.
© lilia_dei

Качество: VHSRip
Тип релиза: Хардсаб
Формат видео: AVI
Видео: DivX 3, 352x240, 478 kbps, 29.970 fps, 8 bit
Аудио: JAP(int), MP3, 128 kbps, 44.1 kHz, 2 ch
Субтитры 1: ENG, хардсаб
Субтитры 2: RUS, ass, внешние, переводчик: RaymanM, редактор: Lord_D
GeneralComplete name : V:\1\MR\Tanjou Debut\Tanjou - Debut - OAV 1.aviFormat : AVIFormat/Info : Audio Video InterleaveFile size : 122 MiBDuration : 27 min 36 sOverall bit rate : 617 kb/sWriting library : VirtualDub build 11636/release

VideoID : 0Format : MPEG-4 VisualCodec ID : DIV3Codec ID/Hint : DivX 3 LowDuration : 27 min 36 sBit rate : 478 kb/sWidth : 352 pixelsHeight : 240 pixelsDisplay aspect ratio : 3:2Frame rate : 29.970 (30000/1001) FPSStandard : NTSCColor space : YUVChroma subsampling : 4:2:0Bit depth : 8 bitsCompression mode : LossyBits/(Pixel*Frame) : 0.189Stream size : 94.3 MiB (77%)

AudioID : 1Format : MPEG AudioFormat version : Version 1Format profile : Layer 3Mode : Joint stereoMode extension : MS StereoCodec ID : 55Codec ID/Hint : MP3Duration : 27 min 36 sBit rate mode : ConstantBit rate : 128 kb/sChannel(s) : 2 channelsSampling rate : 44.1 kHzCompression mode : LossyStream size : 25.2 MiB (21%)Alignment : Split accross interleavesInterleave, duration : 33 ms (1.00 video frame)Interleave, preload duration : 467 ms
1. A new love
2. My dear friend


Трекер:  [ 09-Апр-2018 21:30 ]

  

Скачать .torrent

Размер .torrent файла 18 KB


Размер: 227 MB
Хэш (hash) релиза: b8627954a20840c3c6609f4e5fc777e5357afb6f
Подписка на обновления:

Еще никто не оставлял запись к записи скачать торрент Tanjou: Debut . Будь первым!

!Обратная связь