Epubor Ultimate Converter 3 0 10 224 + Crack [CracksNow]
Ван-Пис: Фильм шестой

Скачать через торрент Кулинарные поединки Сомы: Третье блюдо бесплатно Аниме Все серии на русском torrent

Статистика раздачи
Размер:  466 MB   |    Зарегистрирован:  12 дней   |    .torrent скачан:  26 раз   |   
Раздают:  1  
   
загрузка...
 
Автор Сообщение

Galfimbul

avatar Galfimbul



Кулинарные поединки Сомы: Третье блюдо (Часть вторая)

Shokugeki no Souma: San no Sara - Too Tsuki Ressha Hen / Food Wars! The Third Plate (2018)
Страна: Япония
Год выпуска: 2018
Жанр: Комедия, Романтика, Драма, Сёнэн, Этти
Тип: TV
Продолжительность: ?? эп. ~24 мин
Режиссер: Ёнэтани Ёситомо
Студия:
Озвучка: Многоголосая / AniLibria
—HectoR(муж)
—Anzen(муж)
—Ados(муж)
—Aemi(жен)
—Amikiri(жен)
Перевод: Sovet Romantica
Описание: Юкихира Сома возвращается на наши экраны! Ещё в школе этот парень уже распланировал свою жизнь. Он буквально спал и видел, как маленький ресторанчик, в котором работают он и его отец, переходит к нему по наследству. Но не тут то было, его папа уезжает в путешествие, а самого Юкихиру отправляет в знаменитую кулинарную академию Тоцуки. Здесь самоуверенному Соме приходится буквально сражаться с другими юными поварами, чтобы забраться на самую вершину академии и попасть в число её элиты.
Даже проиграв Акире Хаяме в осенних выборах, неунывающий Сома решает не сдаваться. Он намерен найти свой собственный стиль в приготовлении блюд. А поможет ему в этом программа стажировки для первокурсников, где Юкихире повезло работать плечом к плечу с легендарным Коджиро Шиномией. Поучаствовав в открытии японского филиала его французского ресторана, Сома прошёл через огонь, воду и медные трубы. Возвратившись в Тоцуки, Юкихира как никогда готов принять вызов от любого повара. Начало новым кулинарным боям положено!
Информационные ссылки:: AniDB | MyAnimeList | World Art
<div class="post-box-default">
<div class="post-box">Качество: HDTVRip
Тип релиза: Без хардсаба
Формат видео: MKV
Автор рипа: Ohys-Raws
Видео: AVC, 8 bits, 1280x720, ~2520 kbps, 23,976 fps
Аудио: RUS, AAC, 48000 Hz, 224 kbps, 2 ch; Язык Русский (в составе контейнера) ;
Аудио 2: JAP, AAC, 48000 Hz, 211 kbps, 2 ch;
Субтитры: RUS, ASS (надписи + полные, в составе контейнера) Sovet Romantica (Gromochan)</div>
</div>
Формат : MatroskaВерсия формата : Version 4 / Version 2Размер файла : 466 МбайтПродолжительность : 24 м. 30 с.Общий поток : 2657 Кбит/секДата кодирования : UTC 2018-04-09 17:23:54Программа кодирования : mkvmerge v22.0.0 ('At The End Of The World') 64-bitБиблиотека кодирования : libebml v1.3.5 + libmatroska v1.4.8Attachments : 2265.ttf / 3125511.ttf / 8128831.ttf / Adlery-Pro-Blockletter-trial.ttf / BrushType-SemiBold Regular.Ttf / BTYP.TTF / ofont.ru_AGPalatial (1).ttf / ofont.ru_AGPalatial (2).ttf / ofont.ru_AGPalatial.ttf

ВидеоИдентификатор : 1Формат : AVCФормат/Информация : Advanced Video CodecПрофиль формата : [email protected]Настройки формата : CABAC / 4 Ref FramesПараметр CABAC формата : ДаПараметр RefFrames формата : 4 кадраПараметр GOP формата : M=1, N=2Идентификатор кодека : V_MPEG4/ISO/AVCПродолжительность : 24 м. 30 с.Битрейт : 2232 Кбит/секШирина : 1280 пикселейВысота : 720 пикселейСоотношение сторон : 16:9Режим частоты кадров : ПеременныйЧастота кадров : 23,976 (23976/1000) кадра/секЧастота кадров в оригинале : 23,976 (24000/1001) кадра/секЦветовое пространство : YUVСубдискретизация насыщенности : 4:2:0Битовая глубина : 8 битТип развёртки : ПрогрессивнаяБит/(Пиксели*Кадры) : 0.101Размер потока : 391 Мбайт (84%)Библиотека кодирования : x264 core 155 r2867+82 a249126 t_mod_Custom_2 [[email protected] X86_64]Настройки программы : cabac=1 / ref=3 / deblock=1:0:0 / analyse=0x1:0x111 / me=hex / subme=7 / psy=1 / fade_compensate=0.00 / psy_rd=1.00:0.00 / mixed_ref=1 / me_range=16 / chroma_me=1 / trellis=1 / 8x8dct=0 / cqm=0 / deadzone=21,11 / fast_pskip=1 / chroma_qp_offset=-2 / threads=18 / lookahead_threads=3 / sliced_threads=0 / nr=0 / decimate=1 / interlaced=0 / bluray_compat=0 / constrained_intra=0 / fgo=0 / bframes=3 / b_pyramid=2 / b_adapt=1 / b_bias=0 / direct=1 / weightb=1 / open_gop=0 / weightp=2 / keyint=240 / keyint_min=1 / scenecut=40 / intra_refresh=0 / rc_lookahead=40 / rc=crf / mbtree=1 / crf=20.0000 / qcomp=0.60 / qpmin=0:0:0 / qpmax=69:69:69 / qpstep=4 / ip_ratio=1.40 / aq=1:1.50 / aq-sensitivity=10.00 / aq-factor=1.00:1.00:1.00 / aq2=0 / aq3=0Default : ДаForced : НетЦветовой диапазон : LimitedОсновные цвета : BT.709Характеристики трансфера : BT.709Коэффициенты матрицы : BT.709

Аудио #1Идентификатор : 2Формат : AACФормат/Информация : Advanced Audio CodecПрофиль формата : LCИдентификатор кодека : A_AAC-2Продолжительность : 24 м. 30 с.Битрейт : 221 Кбит/секКаналы : 2 каналаРасположение каналов : Front: L RЧастота : 48,0 КГцЧастота кадров : 46,875 кадров/сек (1024 SPF)Метод сжатия : С потерямиРазмер потока : 38,8 Мбайт (8%)Заголовок : AniLibbria.TV (MVO)Язык : RussianDefault : ДаForced : Да

Аудио #2Идентификатор : 3Формат : AACФормат/Информация : Advanced Audio CodecПрофиль формата : LCИдентификатор кодека : A_AAC-2Продолжительность : 24 м. 30 с.Битрейт : 192 Кбит/секКаналы : 2 каналаРасположение каналов : Front: L RЧастота : 48,0 КГцЧастота кадров : 46,875 кадров/сек (1024 SPF)Метод сжатия : С потерямиРазмер потока : 34,0 Мбайт (7%)Заголовок : ОригиналЯзык : JapaneseDefault : НетForced : Нет

Текст #1Идентификатор : 4Формат : ASSИдентификатор кодека : S_TEXT/ASSИдентификатор кодека/Информация : Advanced Sub Station AlphaПродолжительность : 24 м. 20 с.Битрейт : 11 бит/секElementCount : 19Метод сжатия : Без потерьРазмер потока : 2,13 Кбайт (0%)Заголовок : НадписиЯзык : RussianDefault : ДаForced : Да

Текст #2Идентификатор : 5Формат : ASSИдентификатор кодека : S_TEXT/ASSИдентификатор кодека/Информация : Advanced Sub Station AlphaПродолжительность : 22 м. 50 с.Битрейт : 212 бит/секElementCount : 426Метод сжатия : Без потерьРазмер потока : 35,5 Кбайт (0%)Заголовок : Sovet RomanticaЯзык : RussianDefault : НетForced : Нет

01. Advancement Exam (Переходные экзамены)
02.
03.
04.
05.
06.
07.
08.
09.
10.
11.
12.


Добавлена 1 серия

Трекер:  [ 09-Апр-2018 21:01 ]

  

Скачать .torrent

Размер .torrent файла 18 KB


Размер: 466 MB
Хэш (hash) релиза: 3677b2254ece92181937c7abc25d300199e59f38
Подписка на обновления:

Еще никто не оставлял запись к записи скачать торрент Кулинарные поединки Сомы: Третье блюдо . Будь первым!

!Обратная связь