Comments: 0 | Добавить comprarseguidoresreais.com в поисковую строку | Of Lice and Me season 03 episode 03

Скачать через торрент Золотой Камуй Golden Kamuy бесплатно Аниме Все серии на русском torrent

Статистика раздачи
Размер:  838 MB   |    Зарегистрирован:  3 месяца 12 дней   |    .torrent скачан:  31 раз   |   
Раздают:  1  
   
загрузка...
 
Автор Сообщение

Galfimbul

avatar Galfimbul


Золотой Камуй / Golden Kamuy

Страна: Япония
Год выпуска: 2018
Жанр: Боевик, приключение, исторический, сейнэн
Тип: TV
Продолжительность: 12 эп. по ~24 мин.
Режиссер: Нода Сатору
Студия: Geno Studio
Перевод:
Русские субтитры от Crunchyroll
Описание: История забросит нас в самое начало 20 века на просторы самого северного из японских островов — Хоккайдо. Сайти Сугимото прошёл всю русско-японскую войну и прославился под прозвищем «Неуязвимый»… Но даже героям нужны деньги и Сайти не исключение. Он отправился на Хоккайдо на поиски золота, но набрёл на карту сокровищ и девушку-айну. Что же теперь их ждёт?
Качество: WEBRip
Тип релиза: Без хардсаба
Формат видео: MKV
Наличие линковки: Нет
Релиз/Автор рипа: Refrain
Видео: x264, 8bit, 1920x1080, ~4800 Kbps, 23.976 fps
Аудио Jap: AAC, 44.1kHz, ~128Kbps, 2ch
Субтитры Rus: ASS (внешними файлами)
GeneralUnique ID : 211389768750274338998781638824713607632 (0x9F0830454AF6CB928544D7E52ACD59D0)Complete name : J:\аниме\Golden Kamuy\[Refrain] Golden Kamuy - 01 VOSTFR [1080p].mkvFormat : MatroskaFormat version : Version 4 / Version 2File size : 838 MiBDuration : 23 min 40 sOverall bit rate : 4 951 kb/sEncoded date : UTC 2018-04-09 16:58:16Writing application : mkvmerge v7.9.0 ('Birds') 64bitWriting library : libebml v1.3.1 + libmatroska v1.4.2

VideoID : 1Format : AVCFormat/Info : Advanced Video CodecFormat profile : [email protected] settings : CABAC / 4 Ref FramesFormat settings, CABAC : YesFormat settings, RefFrames : 4 framesCodec ID : V_MPEG4/ISO/AVCDuration : 23 min 40 sBit rate : 4 821 kb/sWidth : 1 920 pixelsHeight : 1 080 pixelsDisplay aspect ratio : 16:9Frame rate mode : ConstantFrame rate : 23.976 (24000/1001) FPSColor space : YUVChroma subsampling : 4:2:0Bit depth : 8 bitsScan type : ProgressiveBits/(Pixel*Frame) : 0.097Stream size : 816 MiB (97%)Writing library : x264 core 142Encoding settings : cabac=1 / ref=4 / deblock=1:1:1 / analyse=0x3:0x113 / me=umh / subme=8 / psy=1 / psy_rd=0.40:0.00 / mixed_ref=1 / me_range=16 / chroma_me=1 / trellis=1 / 8x8dct=1 / cqm=0 / deadzone=21,11 / fast_pskip=1 / chroma_qp_offset=-2 / threads=12 / lookahead_threads=2 / sliced_threads=0 / nr=0 / decimate=1 / interlaced=0 / bluray_compat=0 / constrained_intra=0 / bframes=3 / b_pyramid=2 / b_adapt=2 / b_bias=0 / direct=3 / weightb=1 / open_gop=0 / weightp=2 / keyint=48 / keyint_min=24 / scenecut=40 / intra_refresh=0 / rc_lookahead=48 / rc=crf / mbtree=1 / crf=15.0 / qcomp=0.60 / qpmin=0 / qpmax=69 / qpstep=4 / vbv_maxrate=8000 / vbv_bufsize=12000 / crf_max=0.0 / nal_hrd=none / filler=0 / ip_ratio=1.40 / aq=1:0.60Default : YesForced : No

AudioID : 2Format : AACFormat/Info : Advanced Audio CodecFormat profile : LCCodec ID : A_AAC-2Duration : 23 min 40 sBit rate : 128 kb/sChannel(s) : 2 channelsChannel positions : Front: L RSampling rate : 44.1 kHzFrame rate : 43.066 FPS (1024 SPF)Compression mode : LossyDelay relative to video : -83 msStream size : 21.7 MiB (3%)Title : JapaneseLanguage : JapaneseDefault : YesForced : No
01. Вен Камуй


Трекер:  [ 09-Апр-2018 20:30 ]

  

Скачать .torrent

Размер .torrent файла 17 KB


Размер: 838 MB
Хэш (hash) релиза: 7fe24e7281b86a1e81a0f18ecd64f69e8b794c0d
Подписка на обновления:

Еще никто не оставлял запись к записи скачать торрент Золотой Камуй Golden Kamuy . Будь первым!

!Обратная связь