Dragon Ball Z Special 2: The History of Trunks
Mom S05E16 720p HDTV x264-AVS[eztv] mkv

Скачать через торрент Мэри и ведьмин цветок Mary to Majo no Hana бесплатно Аниме Все серии на русском torrent

Статистика раздачи
Размер:  8.35 GB   |    Зарегистрирован:  11 дней   |    .torrent скачан:  34 раза   |   
Раздают:  1  
   
загрузка...
 
Автор Сообщение

Galfimbul

avatar Galfimbul


Мэри и ведьмин цветок / Mary to Majo no Hana / Mary and the Witch's Flower / メアリと魔女の花



Страна: Япония
Год выпуска: 2017 г.
Жанр: Приключения, фэнтези
Тип: Movie
Продолжительность: 102 мин.
Режиссер: Хиромаса Ёнэбаяси
Студия: Studio Ponoc



Перевод:

Русские субтитры:
Переводчик: Константин Кривоногов
Работа над субтитрами: Страник 2.0

Озвучка: AlexFilm
- многоголосая: Алёна Левичева, Екатерина Муравицкая, Маргарита Корш, Светлана Чистохина, Леонид Дмитриев, Константин Федосеев, Кирилл Патрино, Михаил Федосеев
По переводу: Константин Кривоногов
Монтаж и сведение звука: Михаил Федосеев



Описание: Скучные каникулы в глухой деревне кажутся юной Мэри сущим наказанием. Но в последнюю неделю лета всё внезапно меняется. Нечаянная находка — дивный цветок — уносит Мэри в далёкое зачарованное царство, в мир, полный невероятных приключений и завораживающих чудес. И этому миру грозит опасность! Вместе с чёрным котом, соседским мальчиком-забиякой и маленькой волшебной метлой ей предстоит пройти через рискованные испытания, спасти жителей сказочной страны, узнать, что такое настоящая дружба и понять: мечты — даже самые необыкновенные — иногда сбываются!



world-art | AniDB | MyAnimeList | Офиц. Сайт | IMDb | KinoPoisk



Автор рипа: UCCUSS

Качество: BDRip
Тип релиза: Без хардсаба
Формат видео: MKV
Наличие линковки: Нет
Видео: AVC, 1920x1040 (1.85:1), 10400 Кбит/с, 23.976 fps 8bit
Аудио 1: Русский, AC3, 384 Кбит/с, 48 kHz, 6 ch (в составе контейнера)
Аудио 2: Японский, AC3, 640 Кбит/с, 48 kHz, 6 ch (в составе контейнера)
Субтитры (srt): Русские, Английские [с BD] (в составе контейнера)




General
Unique ID : 219506736957041748430448010928834838183 (0xA52375B37D1A1C8D818B8324A3297EA7)
Complete name : E:/Torrent_2/Mary to Majo no Hana (2017, BDRip-1080p, RUS JAP+SUB [Rus Eng]) [UCCUSS].mkv
Format : Matroska
Format version : Version 2
File size : 8.35 GiB
Duration : 1h 42mn
Overall bit rate : 11.6 Mbps
Encoded date : UTC 2018-04-09 14:48:55
Writing application : mkvmerge v5.5.0 ('Healer') built on Apr 6 2012 21:43:24
Writing library : libebml v1.2.3 + libmatroska v1.3.0

Video #1
ID : 1
Format : AVC
Format/Info : Advanced Video Codec
Format profile : [email protected]
Format settings, CABAC : Yes
Format settings, ReFrames : 4 frames
Codec ID : V_MPEG4/ISO/AVC
Duration : 1h 42mn
Bit rate : 10.4 Mbps
Width : 1 920 pixels
Height : 1 040 pixels
Display aspect ratio : 1.85:1
Frame rate mode : Constant
Frame rate : 23.976 fps
Color space : YUV
Chroma subsampling : 4:2:0
Bit depth : 8 bits
Scan type : Progressive
Bits/(Pixel*Frame) : 0.217
Stream size : 7.45 GiB (89%)
Writing library : x264 core 148 r2744 b97ae06
Encoding settings : cabac=1 / ref=4 / deblock=1:-1:-1 / analyse=0x3:0x133 / me=umh / subme=9 / psy=1 / psy_rd=0.85:0.00 / mixed_ref=1 / me_range=32 / chroma_me=1 / trellis=2 / 8x8dct=1 / cqm=0 / deadzone=21,11 / fast_pskip=1 / chroma_qp_offset=-4 / threads=4 / lookahead_threads=1 / sliced_threads=0 / nr=0 / decimate=0 / interlaced=0 / bluray_compat=0 / constrained_intra=0 / bframes=5 / b_pyramid=2 / b_adapt=1 / b_bias=0 / direct=2 / weightb=1 / open_gop=0 / weightp=2 / keyint=230 / keyint_min=23 / scenecut=40 / intra_refresh=0 / rc_lookahead=50 / rc=crf / mbtree=1 / crf=15.0 / qcomp=0.70 / qpmin=10 / qpmax=42 / qpstep=4 / vbv_maxrate=50000 / vbv_bufsize=50000 / crf_max=0.0 / nal_hrd=none / filler=0 / ip_ratio=1.40 / aq=1:0.90
Language : Japanese
Default : Yes
Forced : No

Audio #2
ID : 2
Format : AC-3
Format/Info : Audio Coding 3
Mode extension : CM (complete main)
Format settings, Endianness : Big
Codec ID : A_AC3
Duration : 1h 42mn
Bit rate mode : Constant
Bit rate : 384 Kbps
Channel(s) : 6 channels
Channel positions : Front: L C R, Side: L R, LFE
Sampling rate : 48.0 KHz
Bit depth : 16 bits
Compression mode : Lossy
Stream size : 282 MiB (3%)
Title : MVO [AlexFilm]
Language : Russian
Default : Yes
Forced : No

Audio #3
ID : 3
Format : AC-3
Format/Info : Audio Coding 3
Mode extension : CM (complete main)
Format settings, Endianness : Big
Codec ID : A_AC3
Duration : 1h 42mn
Bit rate mode : Constant
Bit rate : 640 Kbps
Channel(s) : 6 channels
Channel positions : Front: L C R, Side: L R, LFE
Sampling rate : 48.0 KHz
Bit depth : 16 bits
Compression mode : Lossy
Stream size : 471 MiB (6%)
Language : Japanese
Default : No
Forced : No

Text #4
ID : 4
Format : UTF-8
Codec ID : S_TEXT/UTF8
Codec ID/Info : UTF-8 Plain Text
Language : Russian
Default : No
Forced : No

Text #5
ID : 5
Format : UTF-8
Codec ID : S_TEXT/UTF8
Codec ID/Info : UTF-8 Plain Text
Language : English
Default : No
Forced : No
obolenkov - ...5542807 - 1080p, наличие русских субтитров
obolenkov - ...5543484 - 1080p, альтернативная озвучка, наличие оригин. озвучки+русские сабы
Моя максимальная скорость отдачи 100КБ/c
Раздаю с 7:00 до 00:00 по Москве

Трекер:  [ 09-Апр-2018 19:01 ]

  

Скачать .torrent

Размер .torrent файла 21 KB


Размер: 8.35 GB
Хэш (hash) релиза: ded593f8d3707e492c5729a4edfb08839e955bb1
Подписка на обновления:

Еще никто не оставлял запись к записи скачать торрент Мэри и ведьмин цветок Mary to Majo no Hana . Будь первым!

!Обратная связь