F. Murray Abraham | Bob, der Flaschengeist | Bionic Woman: Agentka przyszłości / Bionic Woman

Скачать через торрент Сокровища ацтеков Сокровища Гранд Каньона бесплатно русская версия torrent активатор

Статистика раздачи
Размер:  1.41 GB   |    Зарегистрирован:  1 месяц 16 дней   |    .torrent скачан:  26 раз   |   
Раздают:  1  
   
загрузка...
 
Автор Сообщение

Galfimbul

avatar Galfimbul


Сокровища ацтеков
The Lost Treasure of the Grand Canyon
Год выпуска: 2008
Страна: Канада
Жанр: ужасы, фэнтези, приключения
Продолжительность: 01:30:18
Перевод: Профессиональный (многоголосый закадровый) - Ren-TV
Субтитры: отсутствуют
Режиссёр: Фархад Манн: Farhad Mann
В ролях: Майкл Шэнкс, Шэннен Доэрти, ДжейАр Борн, Тоби Бернер, Хезер Дорксен, Дункан Фрайзер, Питер Нью, Байрон Чиф-Мун, Алан С. Петерсон, Роб МакКоначи.
О фильме: Команда археологов под руководством доктора Джордана совершает удивительное открытие: в пещерах Гранд-Каньона находится древний, никому неизвестный город, полный тайн и сокровищ. Но не зря местные индейцы считают эту землю проклятой.
Город охраняют не только жестокие воины ацтеков, но и крылатое чудовище. Вместо сокровищ археологи находят смерть. Не дождавшись возвращения отца, Сьюзен Джордан решает отправиться на его поиски…

Данный перевод появляется на трекере впервые.
Перевод записан с телеканала "Новое телевидение" (Караганда). Качество звука весьма посредственное.
Роли озвучивали: Илья Хвостиков, Алексей Войтюк, Марина Бакина.
Семпл: http://sendfile.su/1412054
Качество: BDRipФормат: AVI
Видео: XviD 64, 704х400 (1,76:1), 23,976 fps, ~2102 kbps, 0.311 bit/pixel
Аудио: [RUS] 48 kHz, AC3, 1 ch, 128 kbps
ОбщееПолное имя : F:\Sokrovisha.actekov.2008.BDRip.MVO.Ren-TV.aviФормат : AVIФормат/Информация : Audio Video InterleaveРазмер файла : 1,41 ГбайтПродолжительность : 1 ч. 30 м.Общий поток : 2239 Кбит/секПрограмма кодирования : VirtualDubMod 1.5.10.2 (build 2540/release)Библиотека кодирования : VirtualDubMod build 2540/release

ВидеоИдентификатор : 0Формат : MPEG-4 VisualПрофиль формата : Advanced [email protected]Параметр BVOP формата : 1Параметр QPel формата : НетПараметр GMC формата : Без точки переходаПараметр матрицы формата : ВыборочнаяИдентификатор кодека : XVIDИдентификатор кодека/Подсказка : XviDПродолжительность : 1 ч. 30 м.Битрейт : 2102 Кбит/секШирина : 704 пикселяВысота : 400 пикселейСоотношение сторон : 16:9Частота кадров : 23,976 (24000/1001) кадра/секЦветовое пространство : YUVСубдискретизация насыщенности : 4:2:0Битовая глубина : 8 битТип развёртки : ПрогрессивнаяМетод сжатия : С потерямиБит/(Пиксели*Кадры) : 0.311Размер потока : 1,33 Гбайт (94%)Библиотека кодирования : XviD 64

АудиоИдентификатор : 1Формат : AC-3Формат/Информация : Audio Coding 3Параметр Endianness формата : BigИдентификатор кодека : 2000Продолжительность : 1 ч. 30 м.Вид битрейта : ПостоянныйБитрейт : 128 Кбит/секКаналы : 1 каналРасположение каналов : Front: CЧастота : 48,0 КГцЧастота кадров : 31,250 кадров/сек (1536 SPF)Битовая глубина : 16 битМетод сжатия : С потерямиРазмер потока : 82,7 Мбайт (6%)Выравнивание : Разделение по промежуткамПродолжительность промежутка : 42 мс. (1,00 видеокадр)Время предзагрузки промежутка : 500 мс.ServiceKind/String : Complete Main


Трекер:  [ 09-Апр-2018 18:30 ]

  

Скачать .torrent

Размер .torrent файла 14 KB


Размер: 1.41 GB
Хэш (hash) релиза: 081cefc31aea44cb94b1cdbf9e08280d71e9bfe4

Еще никто не оставлял запись к записи скачать торрент Сокровища ацтеков Сокровища Гранд Каньона . Будь первым!

!Обратная связь