Combat Hospital (2011)
Still Standing

Скачать через торрент Девушки-пони: Славное дерби Uma Musume: Pretty Derby бесплатно Аниме Все серии на русском torrent

Статистика раздачи
Размер:  976 MB   |    Зарегистрирован:  17 дней   |    .torrent скачан:  23 раза   |   
Раздают:  1  
   
загрузка...
 
Автор Сообщение

Galfimbul

avatar Galfimbul



Девушки-пони: Славное дерби / Uma Musume: Pretty Derby
Страна: Япония
Год выпуска: 2018
Жанр: повседневность, спорт
Тип: TV
Продолжительность: 13 эп., ~25 мин. эпизод
Режиссер: Ойкава Кэй
Студия: P.A. Works
Описание:«Генетическими опытами» японских мангак, художников и сценаристов над героями своих историй уже никого не удивишь. Девочки-кошки, кентавры, монстры, каких только гибридов не производила на свет творческая фантазия! На этот раз любителей зооморфов ждет увлекательная история про девочку-пони. Известная и талантливая Спешл Вик — не какой-то там Конек-Горбунок! В свои юные годы она уже добилась популярности, став самой успешной девушкой-атлетом. Чтобы продолжать совершенствовать свой талант и посвятить себя любимому бегу, она поступает в тренировочную академию Трейнцент и вступает в один из лучших атлетических клубов. Уж тут-то Вик сумеет полностью раскрыть весь свой потенциал! Вот только знала ли она, что и за пределами клуба в академии царит постоянная борьба за лидерство? Но ведь сражаться на дистанции и в учебных классах — не одно и то же! Придется нашей одаренной лошадке осваивать еще одну премудрость: как сохранить искреннюю дружбу, постоянно соревнуясь за право быть лучшей. Ведь в академии довольно много не менее талантливых и упорных учеников. Справится ли наша героиня со всеми премудростями школьной жизни и на кого сможет рассчитывать по пути к успеху и признанию?
© Risens Team
World-Art | AniDB
Качество: WEBRip
Тип релиза: Без хардсаба
Формат видео: MKV
Наличие линковки: Нет
Релиз: [HorribleSubs]
Видео: 1280x720, x264, 1 776 kb/s, 23.976 fps, 8 бит
Аудио: AAC, 128 kb/s, 2 ch, 44.1 kHz; язык: японский
Субтитры: внешние; язык субтитров русский; Перевод: Tlencrosby [Risens Team]
Format : MatroskaFormat version : Version 4 / Version 2File size : 325 MiBDuration : 23 min 55 sOverall bit rate : 1 897 kb/sEncoded date : UTC 2018-04-09 10:36:49Writing application : mkvmerge v20.0.0 ('I Am The Sun') 64-bitWriting library : libebml v1.3.5 + libmatroska v1.4.8Attachments : MagistralC-Bold.otf

VideoID : 1Format : AVCFormat/Info : Advanced Video CodecFormat profile : [email protected] settings : CABAC / 6 Ref FramesFormat settings, CABAC : YesFormat settings, ReFrames : 6 framesCodec ID : V_MPEG4/ISO/AVCDuration : 23 min 54 sBit rate : 1 776 kb/sWidth : 1 280 pixelsHeight : 720 pixelsDisplay aspect ratio : 16:9Frame rate mode : VariableFrame rate : 23.976 (23976/1000) FPSColor space : YUVChroma subsampling : 4:2:0Bit depth : 8 bitsScan type : ProgressiveBits/(Pixel*Frame) : 0.080Stream size : 302 MiB (93%)Writing library : x264 core 120 r2120 0c7dab9Encoding settings : cabac=1 / ref=6 / deblock=1:1:1 / analyse=0x3:0x113 / me=umh / subme=8 / psy=1 / psy_rd=0.40:0.00 / mixed_ref=1 / me_range=16 / chroma_me=1 / trellis=1 / 8x8dct=1 / cqm=0 / deadzone=21,11 / fast_pskip=1 / chroma_qp_offset=-2 / threads=4 / sliced_threads=0 / nr=0 / decimate=1 / interlaced=0 / bluray_compat=0 / constrained_intra=0 / bframes=3 / b_pyramid=2 / b_adapt=2 / b_bias=0 / direct=3 / weightb=1 / open_gop=0 / weightp=2 / keyint=250 / keyint_min=23 / scenecut=40 / intra_refresh=0 / rc_lookahead=50 / rc=2pass / mbtree=1 / bitrate=1776 / ratetol=1.0 / qcomp=0.60 / qpmin=0 / qpmax=69 / qpstep=4 / cplxblur=20.0 / qblur=0.5 / vbv_maxrate=3552 / vbv_bufsize=8880 / nal_hrd=none / ip_ratio=1.40 / aq=1:0.60Default : YesForced : No

AudioID : 2Format : AACFormat/Info : Advanced Audio CodecFormat profile : LCCodec ID : A_AAC-2Duration : 23 min 55 sBit rate : 128 kb/sChannel(s) : 2 channelsChannel positions : Front: L RSampling rate : 44.1 kHzFrame rate : 43.066 FPS (1024 SPF)Compression mode : LossyStream size : 21.9 MiB (7%)Language : JapaneseDefault : YesForced : No
1. Ворота Грез!
2. Неожиданный Дебют
3. Первая крупная победа


Трекер:  [ 09-Апр-2018 14:30 ]

  

Скачать .torrent

Размер .torrent файла 20 KB


Размер: 976 MB
Хэш (hash) релиза: d0895c4766c5d59956175ab295637acccb095682
Подписка на обновления:

Еще никто не оставлял запись к записи скачать торрент Девушки-пони: Славное дерби Uma Musume: Pretty Derby . Будь первым!

!Обратная связь