vol.2 ch.15
Mantenimiento pc

Скачать через торрент Мастера Меча Онлайн Альтернатива: Gun Gale Onlin Sword Art Online Alternative: Gun Gale Online бесплатно Аниме Все серии на русском torrent

Статистика раздачи
Размер:  809 MB   |    Зарегистрирован:  15 дней   |    .torrent скачан:  30 раз   |   
Раздают:  1  
   
загрузка...
 
Автор Сообщение

Galfimbul

avatar Galfimbul


Мастера Меча Онлайн Альтернатива: Gun Gale Online/ Sword Art Online Alternative: Gun Gale Online / SAO Alternative Gun Gale Online
Страна: Япония
Год выпуска: 2018
Жанр: Боевик, фэнтези, игры, военный, фантастика
Тип: TV
Продолжительность: 24 эп. по ~24 мин.
Режиссер: Сакой Масаюки
Студия: A-1 Pictures Inc.
Перевод:
Русские субтитры от WAKANIM
Описание: Карэн всегда чувствовала себя лишней в реальном мире... Как будто она не принадлежит ему. Из-за своего высокого роста девушке было очень трудно завести подруг среди ровесниц. Но всё изменилось, когда Карэн познакомилась с небезызвестной VRMMORPG – «Gun Gale Online». В мире «GGO» Карэн может сыграть за персонажа своей мечты – невысокую девочку, одетую во всё розовое, аватара её снов. Но сможет ли Карэн найти друзей в этой экшен-игре?
Качество: WEBRip
Тип релиза: Без хардсаба
Формат видео: MKV
Наличие линковки: Нет
Релиз/Автор рипа: Erai-raws
Видео: x264, 8bit, 1920x1080, ~4700 Kbps, 23.976 fps
Аудио Jap: AAC, 44.1kHz, ~128Kbps, 2ch
Субтитры Rus: ASS (внешними файлами)
GeneralUnique ID : 191429218916604558018868283314866440327 (0x9003ED2EB9909752966C91C294CB4887)Complete name : J:\аниме\sao ggo\Sword Art Online Alternative - Gun Gale Online\[Erai-raws] Sword Art Online Alternative - Gun Gale Online - 01 [1080p].mkvFormat : MatroskaFormat version : Version 4 / Version 2File size : 808 MiBDuration : 23 min 40 sOverall bit rate : 4 772 kb/sEncoded date : UTC 2018-04-09 10:58:48Writing application : mkvmerge v7.9.0 ('Birds') 64bitWriting library : libebml v1.3.1 + libmatroska v1.4.2

VideoID : 1Format : AVCFormat/Info : Advanced Video CodecFormat profile : [email protected] settings : CABAC / 4 Ref FramesFormat settings, CABAC : YesFormat settings, RefFrames : 4 framesCodec ID : V_MPEG4/ISO/AVCDuration : 23 min 40 sBit rate : 4 642 kb/sWidth : 1 920 pixelsHeight : 1 080 pixelsDisplay aspect ratio : 16:9Frame rate mode : ConstantFrame rate : 23.976 (24000/1001) FPSColor space : YUVChroma subsampling : 4:2:0Bit depth : 8 bitsScan type : ProgressiveBits/(Pixel*Frame) : 0.093Stream size : 786 MiB (97%)Writing library : x264 core 142Encoding settings : cabac=1 / ref=4 / deblock=1:1:1 / analyse=0x3:0x113 / me=umh / subme=8 / psy=1 / psy_rd=0.40:0.00 / mixed_ref=1 / me_range=16 / chroma_me=1 / trellis=1 / 8x8dct=1 / cqm=0 / deadzone=21,11 / fast_pskip=1 / chroma_qp_offset=-2 / threads=12 / lookahead_threads=2 / sliced_threads=0 / nr=0 / decimate=1 / interlaced=0 / bluray_compat=0 / constrained_intra=0 / bframes=3 / b_pyramid=2 / b_adapt=2 / b_bias=0 / direct=3 / weightb=1 / open_gop=0 / weightp=2 / keyint=48 / keyint_min=24 / scenecut=40 / intra_refresh=0 / rc_lookahead=48 / rc=crf / mbtree=1 / crf=15.0 / qcomp=0.60 / qpmin=0 / qpmax=69 / qpstep=4 / vbv_maxrate=8000 / vbv_bufsize=12000 / crf_max=0.0 / nal_hrd=none / filler=0 / ip_ratio=1.40 / aq=1:0.60Default : YesForced : No

AudioID : 2Format : AACFormat/Info : Advanced Audio CodecFormat profile : LCCodec ID : A_AAC-2Duration : 23 min 40 sBit rate : 128 kb/sChannel(s) : 2 channelsChannel positions : Front: L RSampling rate : 44.1 kHzFrame rate : 43.066 FPS (1024 SPF)Compression mode : LossyDelay relative to video : -83 msStream size : 21.7 MiB (3%)Title : JapaneseLanguage : JapaneseDefault : YesForced : No
01. Схватка отрядов
...5546184 - 1080p


Трекер:  [ 09-Апр-2018 14:30 ]

  

Скачать .torrent

Размер .torrent файла 16 KB


Размер: 809 MB
Хэш (hash) релиза: eedd38fc8a04ca480c1476506460d7a4a97b59f8
Подписка на обновления:

Еще никто не оставлял запись к записи скачать торрент Мастера Меча Онлайн Альтернатива: Gun Gale Onlin Sword Art Online Alternative: Gun Gale Online . Будь первым!

!Обратная связь