Movies 2015 | Murenase! Shiiton Gakuen | "Hawaii Five-0" [S07E17] HDTV.x264-LOL

Скачать через торрент Любовные страсти пансиона Тачибана Tachibana-kan to Lie Angle бесплатно Аниме Все серии на русском torrent

Статистика раздачи
Размер:  48 MB   |    Зарегистрирован:  1 месяц 17 дней   |    .torrent скачан:  17 раз   |   
Раздают:  1  
   
загрузка...
 
Автор Сообщение

Galfimbul

avatar Galfimbul



Любовные страсти пансиона Тачибана / Tachibana-kan to Lie Angle / Tachibanakan To Lie Angle / Tachibanakan Triangle / Love to Lie Angle
Страна: Япония
Год выпуска: 2018
Жанр: комедия, повседневность, этти
Тип: TV
Продолжительность: 12 эп., ~5 мин. эпизод
Режиссер: Хирасава Хисаёси
Студия: Creators in Pack
Описание: Жизнь в общежитии — то еще приключение! Особенно, если ты симпатичная старшеклассница, на которую заглядываются не только парни. Да и когда еще покуролесить от души, если не в старшей школе? Симпатяга Ханаби Нацуно так радовалась возвращению в родной городок и тому, что коротать веселые деньки она теперь сможет в обществе таких же старшеклассниц! Ностальгия по детским воспоминаниям привела ее на знакомые улочки… Но как и большинство японских подростков — героев аниме — Ханаби страдает какой-то необъяснимой юношеской амнезией: тут помню, тут не помню… Ведь о своих закадычных друзьях детства она напрочь позабыла! А вот они ее отлично помнят и не прочь возобновить общение, но уже по-взрослому.

И где же еще можно было столкнуться с подругами детства, как не в общежитии Тачибана? Теплый прием Ханаби, конечно, озадачивает, ведь никто из соседок не должен был знать о ее приезде, однако… Со временем утраченные воспоминания возвращаются отдельными образами и героиня с удивлением обнаруживает, что одна из новых подружек — ее давняя знакомая, которая не только прекрасно помнит Ханаби, но и имеет на нее виды.

А вот сама Ханаби никак не может выкинуть из головы таинственную обнаженную незнакомку… В общем, учиться совершенно некогда!

© Risens Team
World-Art | AniDB
Качество: WEBRip
Тип релиза: Без хардсаба
Формат видео: MKV
Наличие линковки: Нет
Релиз: [HorribleSubs]
Видео: 1280x720, x264, 1 776 kb/s, 23.976 fps, 8 бит
Аудио: AAC, 128 kb/s, 2 ch, 44.1 kHz; Язык: японский
Субтитры: внешние; язык субтитров русский; Перевод: TiredGirl (speedsub)
Format : MatroskaFormat version : Version 4 / Version 2File size : 48.0 MiBDuration : 3 min 30 sOverall bit rate : 1 915 kb/sEncoded date : UTC 2018-04-09 09:26:34Writing application : mkvmerge v20.0.0 ('I Am The Sun') 64-bitWriting library : libebml v1.3.5 + libmatroska v1.4.8Attachments : OpenSans-Semibold.ttf

VideoID : 1Format : AVCFormat/Info : Advanced Video CodecFormat profile : [email protected] settings : CABAC / 6 Ref FramesFormat settings, CABAC : YesFormat settings, ReFrames : 6 framesCodec ID : V_MPEG4/ISO/AVCDuration : 3 min 30 sBit rate : 1 776 kb/sWidth : 1 280 pixelsHeight : 720 pixelsDisplay aspect ratio : 16:9Frame rate mode : VariableFrame rate : 23.976 (23976/1000) FPSColor space : YUVChroma subsampling : 4:2:0Bit depth : 8 bitsScan type : ProgressiveBits/(Pixel*Frame) : 0.080Stream size : 44.5 MiB (93%)Writing library : x264 core 120 r2120 0c7dab9Encoding settings : cabac=1 / ref=6 / deblock=1:1:1 / analyse=0x3:0x113 / me=umh / subme=8 / psy=1 / psy_rd=0.40:0.00 / mixed_ref=1 / me_range=16 / chroma_me=1 / trellis=1 / 8x8dct=1 / cqm=0 / deadzone=21,11 / fast_pskip=1 / chroma_qp_offset=-2 / threads=4 / sliced_threads=0 / nr=0 / decimate=1 / interlaced=0 / bluray_compat=0 / constrained_intra=0 / bframes=3 / b_pyramid=2 / b_adapt=2 / b_bias=0 / direct=3 / weightb=1 / open_gop=0 / weightp=2 / keyint=250 / keyint_min=23 / scenecut=40 / intra_refresh=0 / rc_lookahead=50 / rc=2pass / mbtree=1 / bitrate=1776 / ratetol=1.0 / qcomp=0.60 / qpmin=0 / qpmax=69 / qpstep=4 / cplxblur=20.0 / qblur=0.5 / vbv_maxrate=3552 / vbv_bufsize=8880 / nal_hrd=none / ip_ratio=1.40 / aq=1:0.60Default : YesForced : No

AudioID : 2Format : AACFormat/Info : Advanced Audio CodecFormat profile : LCCodec ID : A_AAC-2Duration : 3 min 30 sBit rate : 128 kb/sChannel(s) : 2 channelsChannel positions : Front: L RSampling rate : 44.1 kHzFrame rate : 43.066 FPS (1024 SPF)Compression mode : LossyStream size : 3.21 MiB (7%)Language : JapaneseDefault : YesForced : No
1. Новая жизнь!


Трекер:  [ 09-Апр-2018 13:01 ]

  

Скачать .torrent

Размер .torrent файла 15 KB


Размер: 48 MB
Хэш (hash) релиза: 2ea67486fa9fc2d3ec436e3441d7a8000fb84650
Подписка на обновления:

Еще никто не оставлял запись к записи скачать торрент Любовные страсти пансиона Тачибана Tachibana-kan to Lie Angle . Будь первым!

!Обратная связь