1x50 Paraiso Travel
Next →

Скачать через торрент Довлатов Фильм бесплатно в хорошем качестве torrent

Скачивайте на UnionPeer.org фильмы через торрент без регистрации. Новинки кино в хорошем качестве через торрент. На UnionPeer.org можно скачать через торрент фильмы 2014 и 2015 годов. Самые новые фильмы.

Скачать торрент Довлатов бесплатно через .torrent фильм мультфильм сериал

Статистика раздачи
Размер:  1.46 GB   |    Зарегистрирован:  14 дней   |    .torrent скачан:  32 раза   |   
Раздают:  1  
   
загрузка...
 
Автор Сообщение

Galfimbul

avatar Galfimbul


Довлатов

Страна: Россия, Польша, Сербия
Жанр: драма, мелодрама, биография
Год выпуска: 2018
Продолжительность: 02:06:10
Субтитры: нет
Режиссер: Алексей Герман мл.
В ролях: Милан Марич, Хелена Суецкая, Ева Герр, Артур Бесчастный, Данила Козловский, Антон Шагин, Светлана Ходченкова, Елена Лядова, Игорь Митюшкин, Пётр Гонсовский, Тамара Оганесян, Анна Екатерининская, Сергей Толстов, Ханна Слешиньская, Аревик Геворкян
Описание: Фильм о нескольких днях из жизни писателя Сергея Довлатова в Ленинграде начала 70-х годов накануне эмиграции его друга, будущего лауреата Нобелевской премии Иосифа Бродского. Это круговорот из парадоксальных и смешных ситуаций. Столкновение с криминалом, светская и литературная жизнь Ленинграда, киностудия «Ленфильм», музыка, чтение стихов, ремесло журналиста, страстное желание купить для своей дочери куклу, которую не достать нигде. В череде жизненных коллизий, иногда смешных, а иногда пронзительных, зритель открывает для себя жизнь тонкого, блестящего, ироничного человека, который выбирает свой творческий путь, чтобы позже превратиться в одного из самых популярных русских прозаиков XX века.
Качество видео: WEB-DLRip
Формат видео: AVI

Видео: 720x304 (2.37:1), 24 fps, XviD build 73 ~1455 kbps avg, 0.28 bit/pixel
Аудио: 48 kHz, AC3 Dolby Digital, 2/0 (L,R) ch, ~192 kbps
Сэмпл
Format                      : AVI
Format/Info                 : Audio Video Interleave
File size                   : 1.46 GiB
Duration                    : 2 h 6 min
Overall bit rate            : 1 657 kb/s
Writing application         : VirtualDubMod 1.5.10.2 (build 2540/release)
Writing library             : VirtualDubMod build 2540/release

Video
ID                          : 0
Format                      : MPEG-4 Visual
Format profile              : Advanced [email protected]
Format settings             : BVOP1 / Custom Matrix
Format settings, BVOP       : 1
Format settings, QPel       : No
Format settings, GMC        : No warppoints
Format settings, Matrix     : Custom
Codec ID                    : XVID
Codec ID/Hint               : XviD
Duration                    : 2 h 6 min
Bit rate                    : 1 456 kb/s
Width                       : 720 pixels
Height                      : 304 pixels
Display aspect ratio        : 2.35:1
Frame rate                  : 24.000 FPS
Color space                 : YUV
Chroma subsampling          : 4:2:0
Bit depth                   : 8 bits
Scan type                   : Progressive
Compression mode            : Lossy
Bits/(Pixel*Frame)          : 0.277
Stream size                 : 1.28 GiB (88%)
Writing library             : XviD 73

Audio
ID                          : 1
Format                      : AC-3
Format/Info                 : Audio Coding 3
Codec ID                    : 2000
Duration                    : 2 h 6 min
Bit rate mode               : Constant
Bit rate                    : 192 kb/s
Channel(s)                  : 2 channels
Channel positions           : Front: L R
Sampling rate               : 48.0 kHz
Frame rate                  : 31.250 FPS (1536 SPF)
Bit depth                   : 16 bits
Compression mode            : Lossy
Stream size                 : 173 MiB (12%)
Alignment                   : Split accross interleaves
Interleave, duration        : 42  ms (1.00 video frame)
Interleave, preload duratio : 500  ms
Service kind                : Complete Main


Трекер:  [ 09-Апр-2018 06:24 ]

  

Скачать .torrent

Размер .torrent файла 15 KB


Размер: 1.46 GB
Хэш (hash) релиза: e77150b8a5b84a945571b39b615b7e128a5608f6
Подписка на обновления:

Торренты, похожие на Довлатов скачать торрент

Форум Название Автор Размер S L Добавлен
Российские фильмы до 2016 ·· Довлатов (Алексей Герман мл.) [2018, Россия, Польша, Сербия, драма, мелодрама, WEB-DL 1080p] Original Rus Galfimbul 47598199474.43 GB 0 0 1523356226

13:30

10-Апр-18

Российские фильмы до 2016 ·· Довлатов (Алексей Герман-мл.) [2018, драма, мелодрама, WEB-DLRip-AVC] Galfimbul 15593929351.45 GB 0 0 1523343250

09:54

10-Апр-18

Российские фильмы до 2016 ·· Довлатов (Алексей Герман мл.) [2018, драма, мелодрама, биография, WEB-DLRip] Galfimbul 23437393922.18 GB 0 0 1523244263

06:24

9-Апр-18

Российские фильмы 2016-2018 (Новинки русского кино) ·· Довлатов (Алексей Герман мл.) [2018 г., драма, мелодрама, WEB-DL 720p] Galfimbul 44478299844.14 GB 0 0 1522912111

10:08

5-Апр-18

Российские фильмы 2016-2018 (Новинки русского кино) ·· Довлатов (Алексей Герман мл.) [2018 г., драма, мелодрама, WEB-DLRip] Galfimbul 22037258242.05 GB 0 0 1522912110

10:08

5-Апр-18

Российские фильмы 2016-2018 (Новинки русского кино) ·· Довлатов (Алексей Герман мл.) [2018 г., драма, мелодрама, WEB-DLRip] Galfimbul 14676213761.37 GB 0 0 1522912109

10:08

5-Апр-18

Российские фильмы 2016-2018 (Новинки русского кино) ·· Довлатов (Алексей Герман мл.) [2018 г., драма, мелодрама, TS] Galfimbul 14675824641.37 GB 0 0 1520318535

09:42

6-Мар-18

Российские фильмы 2016-2018 (Новинки русского кино) ·· Довлатов (Алексей Герман мл.) [2018 г., драма, мелодрама, TS 720p] Galfimbul 29058594572.71 GB 0 0 1520318527

09:42

6-Мар-18

Еще никто не оставлял запись к записи скачать торрент Довлатов . Будь первым!

!Обратная связь