Mythica Una Proeza Heroica BluRay MicroHD | Featured Apps Games of the Day (2018/7/14) | 17 otra vez

Скачать через торрент Моэтан Moetan бесплатно Аниме Все серии на русском torrent

Статистика раздачи
Размер:  76.34 GB   |    Зарегистрирован:  3 месяца 12 дней   |    .torrent скачан:  28 раз   |   
Раздают:  1  
   
загрузка...
 
Автор Сообщение

Galfimbul

avatar Galfimbul


Моэтан / Moetan

Год выпуска: 2007
Страна: Япония
Жанр: комедия, махо-сёдзё, этти
Тип: TV+Special
Продолжительность: 11 эп. по 24 мин., 2 спешала по 24 мин., 1 спешал 30 мин.
Озвучка: нет

Русские субтитры: есть (отдельным файлом, формат .ass)
Перевод:

Apxubapuyc, Rover, Stray

Хардсаб: Нет
Режиссер: Кавагути Кэйитиро
Студия: ACTAS, Inc.

Описание: Молодой, но могущественный волшебник Аркс Шелдарт Элбиас отправляется за неописанные проступки в качестве тренировки в мир людей в виде утки. Падает он, конечно, из всей Земли совершенно случайно на главную героиню. Зовут её Инк, она, конечно же, умная и прекрасная старшеклассница, только вот в физическом и поведенческом плане похожа на первоклассницу - гэги каждые две минуты на эту тему под конец просто утомляют. Аркс не тратит эпизод напрасно и быренько вербует Инк в девочки-волшебницы [(С) абсурдопедия ] благодаря факту, что гг в новом образе может легко приударить за своим одноклассником Нао.
Утко-извращенец и гг с видом и моском шестилетнего ребёнка похоже обещают неплохой комедийный дуэт. А если авторы продолжат в таком же стёбном стиле, не переходя в чистое махо-сёдзе, получится вообще забавная анимешка. Рисовка приятная, сохраняющая баланс между реалистичной и кавайной. Дать оценку пока что нереально - может выйти как шедевр, так и треш, так что просто ждём продолжения. ©Sagara-kun

Качество: Blu-Ray Remux
Формат: MKV
Видео кодек: AVC
Аудио кодек: FLAC
Видео: 1920x1080 (16:9) 29,97 fps ~31 Mbps 8bit
Аудио:
Jap FLAC, 48000Hz, ~731 Kbps, 2ch

Чаптеры присутствуют.
01. Волшебный учитель
02. Мне не нужна соперница
03. Операция "Страх"
04. Идол вне времени
05. Немного воспоминаний
05.5. Дневник Моэтана (Спешал 1)
06. Первое свидание (Спешал 2)
07. Цель: школьный фестиваль
08. Беда
09. Порыв... ветра
10. Запретное время
11. Не пасуй перед экзаменом!
12. Вперёд!
13. Верховный правитель конца столетия! Объединённая атака девочек-волшебниц (Спешал 3)
Общее
Уникальный идентификатор : 265655699671914135737480755967551837738 (0xC7DB6D3B86611681B511985E54D7962A)
Полное имя : Z:\Anime Release - working\Moetan\[anti-raws]Moetan ep.01[BDRemux].mkv
Формат : Matroska
Версия формата : Version 4 / Version 2
Размер файла : 5,79 Гбайт
Продолжительность : 25 м. 33 с.
Режим общего битрейта : Переменный
Общий поток : 32,5 Мбит/сек
Дата кодирования : UTC 2018-04-01 17:02:04
Программа кодирования : mkvmerge v20.0.0 ('I Am The Sun') 64-bit
Библиотека кодирования : libebml v1.3.5 + libmatroska v1.4.8

Видео
Идентификатор : 2
Формат : AVC
Формат/Информация : Advanced Video Codec
Профиль формата : [email protected]
Настройки формата : CABAC / 4 Ref Frames
Параметр CABAC формата : Да
Параметр RefFrames формата : 4 кадра
Идентификатор кодека : V_MPEG4/ISO/AVC
Продолжительность : 25 м. 32 с.
Вид битрейта : Переменный
Битрейт : 31,7 Мбит/сек
Максимальный битрейт : 40,0 Мбит/сек
Ширина : 1920 пикселей
Высота : 1080 пикселей
Соотношение сторон : 16:9
Режим частоты кадров : Постоянный
Частота кадров : 29,970 (30000/1001) кадров/сек
Цветовое пространство : YUV
Субдискретизация насыщенности : 4:2:0
Битовая глубина : 8 бит
Тип развёртки : MBAFF
Метод сохранения типа развёртки : Чередующиеся поля
Порядок развёртки : Верхнее поле первое
Бит/(Пиксели*Кадры) : 0.511
Размер потока : 5,66 Гбайт (98%)
Default : Нет
Forced : Нет
Цветовой диапазон : Limited
Основные цвета : BT.709
Характеристики трансфера : BT.709
Коэффициенты матрицы : BT.709

Аудио
Идентификатор : 1
Формат : FLAC
Формат/Информация : Free Lossless Audio Codec
Идентификатор кодека : A_FLAC
Продолжительность : 25 м. 33 с.
Вид битрейта : Переменный
Битрейт : 731 Кбит/сек
Каналы : 2 канала
Расположение каналов : Front: L R
Частота : 48,0 КГц
Частота кадров : 11,719 кадров/сек (4096 SPF)
Битовая глубина : 16 бит
Размер потока : 134 Мбайт (2%)
Библиотека кодирования : libFLAC 1.2.1 (UTC 2007-09-17)
Язык : Japanese
Default : Да
Forced : Нет

Меню
00:00:00.000 : en:00:00:00.000
00:00:57.057 : en:00:00:57.057
00:02:27.014 : en:00:02:27.014
00:10:59.058 : en:00:10:59.058
00:23:17.062 : en:00:23:17.062
00:24:47.019 : en:00:24:47.019
00:25:17.049 : en:00:25:17.049
...1589895
--HDRVRip

...5122342
...5305548
--BDRip

Эта раздача - BDRemux


Трекер:  [ 09-Апр-2018 01:01 ]

  

Скачать .torrent

Размер .torrent файла 100 KB


Размер: 76.34 GB
Хэш (hash) релиза: c85481f83008863bf02b45989fb715a8973f827d
Подписка на обновления:

Еще никто не оставлял запись к записи скачать торрент Моэтан Moetan . Будь первым!

!Обратная связь